<?xml version="1.0" standalone="no"?>
<!DOCTYPE svg PUBLIC "-//W3C//DTD SVG 1.1//EN" "http://www.w3.org/Graphics/SVG/1.1/DTD/svg11.dtd" >
<svg xmlns="http://www.w3.org/2000/svg">
<metadata>Generated by IcoMoon</metadata>
<defs>
<font id="etheme" horiz-adv-x="1024">
<font-face units-per-em="1024" ascent="960" descent="-64" />
<missing-glyph horiz-adv-x="1024" />
<glyph unicode="&#x20;" horiz-adv-x="512" d="" />
<glyph unicode="&#xe900;" glyph-name="e-01" d="M831.263 602.44c4.792-5.345 7.209-11.469 7.209-18.391 0-6.943-2.396-13.066-7.209-18.391l-358.4-358.4c-2.683-2.13-5.591-3.871-8.806-5.202-3.195-1.331-6.41-2.007-9.605-2.007s-6.41 0.655-9.605 2.007c-3.195 1.331-6.144 3.052-8.806 5.202l-358.4 358.4c-4.792 5.325-7.209 11.469-7.209 18.391s2.396 13.066 7.209 18.391l102.4 102.4c5.325 4.792 11.469 7.209 18.391 7.209s13.066-2.396 18.391-7.209l237.629-238.387 237.609 238.408c5.325 4.792 11.469 7.209 18.391 7.209s13.066-2.396 18.391-7.209l102.42-102.42zM454.451 261.652l322.396 322.396-66.396 66.396-237.588-238.408c-5.345-4.792-11.489-7.209-18.391-7.209-6.943 0-13.087 2.396-18.391 7.209l-237.629 238.408-66.396-66.396 322.396-322.396z" />
<glyph unicode="&#xe901;" glyph-name="e-02" d="M787.313 712.049c0-6.943-2.396-13.066-7.209-18.391l-238.387-237.609 238.408-237.609c4.792-5.345 7.209-11.469 7.209-18.391 0-6.943-2.396-13.066-7.209-18.391l-102.4-102.4c-2.683-2.13-5.591-3.85-8.806-5.202-3.195-1.331-6.41-2.007-9.605-2.007s-6.41 0.676-9.605 2.007c-3.195 1.331-6.144 3.072-8.806 5.202l-358.4 358.4c-4.792 5.325-7.209 11.469-7.209 18.391s2.396 13.066 7.209 18.391l358.4 358.4c5.325 4.792 11.469 7.209 18.391 7.209s13.066-2.396 18.391-7.209l102.4-102.4c4.833-5.325 7.229-11.469 7.229-18.391zM487.322 474.44l238.408 237.609-66.396 66.396-322.417-322.396 322.396-322.396 66.396 66.396-238.387 237.588c-4.792 5.325-7.209 11.469-7.209 18.391 0 6.943 2.396 13.087 7.209 18.412z" />
<glyph unicode="&#xe902;" glyph-name="e-03" d="M278.405 181.637c-4.792 5.325-7.209 11.469-7.209 18.391s2.396 13.066 7.209 18.391l238.408 237.609-238.408 237.609c-4.792 5.325-7.209 11.469-7.209 18.391s2.396 13.066 7.209 18.391l102.4 102.4c5.325 4.792 11.469 7.209 18.391 7.209s13.066-2.396 18.391-7.209l358.4-358.4c4.792-5.345 7.209-11.469 7.209-18.391 0-6.943-2.396-13.066-7.209-18.391l-358.4-358.4c-2.683-2.13-5.591-3.85-8.806-5.202-3.195-1.331-6.41-2.007-9.605-2.007s-6.41 0.676-9.605 2.007c-3.195 1.331-6.144 3.072-8.806 5.202l-102.359 102.4zM571.208 437.637l-238.408-237.588 66.396-66.396 322.396 322.396-322.376 322.396-66.396-66.396 238.408-237.609c4.792-5.345 7.209-11.469 7.209-18.391-0.020-6.943-2.437-13.066-7.229-18.412z" />
<glyph unicode="&#xe903;" glyph-name="e-04" d="M888.648 346.44c4.792-5.345 7.209-11.469 7.209-18.391 0-6.943-2.396-13.066-7.209-18.391l-102.4-102.4c-2.683-2.13-5.591-3.871-8.806-5.202-3.195-1.331-6.41-2.007-9.605-2.007s-6.41 0.655-9.605 2.007c-3.195 1.331-6.144 3.052-8.806 5.202l-237.568 238.387-237.609-238.408c-5.345-4.792-11.489-7.209-18.391-7.209-6.943 0-13.087 2.396-18.391 7.209l-102.4 102.4c-4.792 5.325-7.209 11.469-7.209 18.391s2.396 13.066 7.209 18.391l358.4 358.4c5.325 4.792 11.469 7.209 18.391 7.209s13.066-2.396 18.391-7.209l358.4-358.38zM834.253 328.049l-322.396 322.396-322.417-322.396 66.396-66.396 237.609 238.408c2.662 2.13 5.591 3.85 8.806 5.202 3.195 1.331 6.41 2.007 9.605 2.007s6.41-0.676 9.605-2.007c3.195-1.331 6.124-3.072 8.806-5.202l237.609-238.408 66.376 66.396z" />
<glyph unicode="&#xe904;" glyph-name="e-05" d="M679.67 833.249c49.603-21.606 92.918-50.934 130.007-88.003 37.069-37.069 66.396-80.404 88.003-130.007s32.399-102.666 32.399-159.191c0-56.545-10.793-109.609-32.399-159.191s-50.934-92.938-88.003-130.007c-37.089-37.069-80.404-66.396-130.007-88.003s-102.687-32.399-159.191-32.399c-56.545 0-109.609 10.793-159.191 32.399s-92.938 50.934-130.007 88.003c-37.089 37.069-66.396 80.404-88.003 130.007s-32.399 102.666-32.399 159.191c0 56.525 10.793 109.609 32.399 159.191s50.913 92.938 88.003 130.007c37.069 37.069 80.404 66.396 130.007 88.003s102.666 32.399 159.191 32.399c56.504 0 109.588-10.793 159.191-32.399zM660.070 126.054c43.459 18.924 81.326 44.524 113.603 76.8 32.256 32.256 57.856 70.124 76.8 113.603 18.924 43.459 28.406 90.010 28.406 139.592s-9.482 96.133-28.406 139.592c-18.944 43.459-44.544 81.326-76.8 113.603-32.276 32.256-70.144 57.856-113.603 76.8-43.479 18.924-90.010 28.406-139.592 28.406s-96.133-9.462-139.592-28.406c-43.479-18.944-81.347-44.544-113.603-76.8-32.276-32.276-57.876-70.144-76.8-113.603-18.944-43.479-28.406-90.010-28.406-139.592s9.462-96.133 28.406-139.592c18.924-43.479 44.524-81.347 76.8-113.603 32.256-32.276 70.124-57.876 113.603-76.8 43.459-18.944 90.010-28.406 139.592-28.406s96.113 9.462 139.592 28.406zM674.079 558.449c6.922 0 13.066-2.396 18.391-7.209 4.792-5.345 7.209-11.469 7.209-18.391 0-6.943-2.396-13.066-7.209-18.391l-153.6-153.6c-2.683-2.13-5.591-3.871-8.806-5.202-3.195-1.331-6.41-2.007-9.605-2.007s-6.41 0.655-9.605 2.007c-3.195 1.331-6.144 3.052-8.806 5.202l-153.6 153.6c-4.792 5.325-7.209 11.469-7.209 18.391s2.396 13.066 7.209 18.391c5.325 4.792 11.469 7.209 18.391 7.209s13.066-2.396 18.391-7.209l135.209-136.008 135.209 136.008c5.345 4.813 11.489 7.209 18.432 7.209z" />
<glyph unicode="&#xe905;" glyph-name="e-06" d="M662.753 833.249c49.603-21.606 92.918-50.934 130.007-88.003 37.069-37.069 66.396-80.404 88.003-130.007s32.399-102.666 32.399-159.191c0-56.545-10.793-109.609-32.399-159.191s-50.934-92.938-88.003-130.007c-37.089-37.069-80.404-66.396-130.007-88.003s-102.687-32.399-159.191-32.399c-56.545 0-109.609 10.793-159.191 32.399s-92.938 50.934-130.007 88.003c-37.089 37.069-66.396 80.404-88.003 130.007s-32.399 102.666-32.399 159.191c0 56.525 10.793 109.609 32.399 159.191s50.913 92.938 88.003 130.007c37.069 37.069 80.404 66.396 130.007 88.003s102.666 32.399 159.191 32.399c56.504 0 109.588-10.793 159.191-32.399zM643.154 126.054c43.459 18.924 81.326 44.524 113.603 76.8 32.256 32.256 57.856 70.124 76.8 113.603 18.924 43.459 28.406 90.010 28.406 139.592s-9.482 96.133-28.406 139.592c-18.944 43.459-44.544 81.326-76.8 113.603-32.276 32.256-70.144 57.856-113.603 76.8-43.479 18.924-90.010 28.406-139.592 28.406s-96.133-9.462-139.592-28.406c-43.479-18.944-81.347-44.544-113.603-76.8-32.276-32.276-57.876-70.144-76.8-113.603-18.944-43.479-28.406-90.010-28.406-139.592s9.462-96.133 28.406-139.592c18.924-43.479 44.524-81.347 76.8-113.603 32.256-32.276 70.124-57.876 113.603-76.8 43.459-18.944 90.010-28.406 139.592-28.406s96.113 9.462 139.592 28.406zM605.942 609.649c0-6.943-2.396-13.066-7.209-18.391l-136.008-135.209 136.008-135.209c4.792-5.345 7.209-11.469 7.209-18.391 0-6.943-2.396-13.066-7.209-18.391-2.683-2.13-5.591-3.871-8.806-5.202-3.195-1.331-6.41-2.007-9.605-2.007s-6.41 0.655-9.605 2.007c-3.195 1.331-6.144 3.052-8.806 5.202l-153.6 153.6c-4.792 5.325-7.209 11.469-7.209 18.391s2.396 13.066 7.209 18.391l153.6 153.6c5.325 4.792 11.469 7.209 18.391 7.209s13.066-2.396 18.391-7.209c4.854-5.325 7.25-11.469 7.25-18.391z" />
<glyph unicode="&#xe906;" glyph-name="e-07" d="M674.652 833.249c49.603-21.606 92.918-50.934 130.007-88.003 37.069-37.069 66.396-80.404 88.003-130.007s32.399-102.666 32.399-159.191c0-56.545-10.793-109.609-32.399-159.191s-50.934-92.938-88.003-130.007c-37.089-37.069-80.404-66.396-130.007-88.003s-102.687-32.399-159.191-32.399c-56.545 0-109.609 10.793-159.191 32.399s-92.938 50.934-130.007 88.003c-37.089 37.069-66.396 80.404-88.003 130.007s-32.399 102.666-32.399 159.191c0 56.525 10.793 109.609 32.399 159.191s50.913 92.938 88.003 130.007c37.069 37.069 80.404 66.396 130.007 88.003s102.666 32.399 159.191 32.399c56.504 0 109.588-10.793 159.191-32.399zM655.053 126.054c43.459 18.924 81.326 44.524 113.603 76.8 32.256 32.256 57.856 70.124 76.8 113.603 18.924 43.459 28.406 90.010 28.406 139.592s-9.482 96.133-28.406 139.592c-18.944 43.459-44.544 81.326-76.8 113.603-32.276 32.256-70.144 57.856-113.603 76.8-43.479 18.924-90.010 28.406-139.592 28.406s-96.133-9.462-139.592-28.406c-43.479-18.944-81.347-44.544-113.603-76.8-32.276-32.276-57.876-70.144-76.8-113.603-18.944-43.479-28.406-90.010-28.406-139.592s9.462-96.133 28.406-139.592c18.924-43.479 44.524-81.347 76.8-113.603 32.256-32.276 70.124-57.876 113.603-76.8 43.459-18.944 90.010-28.406 139.592-28.406s96.113 9.462 139.592 28.406zM457.052 628.040l153.6-153.6c4.792-5.345 7.209-11.469 7.209-18.391 0-6.943-2.396-13.066-7.209-18.391l-153.6-153.6c-2.683-2.13-5.591-3.871-8.806-5.202-3.195-1.331-6.41-2.007-9.605-2.007s-6.41 0.655-9.605 2.007c-3.195 1.331-6.144 3.052-8.806 5.202-4.792 5.325-7.209 11.469-7.209 18.391s2.396 13.066 7.209 18.391l136.008 135.209-136.008 135.209c-4.792 5.325-7.209 11.469-7.209 18.391s2.396 13.066 7.209 18.391c5.325 4.792 11.469 7.209 18.391 7.209 6.943 0 13.087-2.396 18.432-7.209z" />
<glyph unicode="&#xe907;" glyph-name="e-08" d="M664.637 833.249c49.603-21.606 92.918-50.934 130.007-88.003 37.069-37.069 66.396-80.404 88.003-130.007s32.399-102.666 32.399-159.191c0-56.545-10.793-109.609-32.399-159.191s-50.934-92.938-88.003-130.007c-37.089-37.069-80.404-66.396-130.007-88.003s-102.687-32.399-159.191-32.399c-56.545 0-109.609 10.793-159.191 32.399s-92.938 50.934-130.007 88.003c-37.089 37.069-66.396 80.404-88.003 130.007s-32.399 102.666-32.399 159.191c0 56.525 10.793 109.609 32.399 159.191s50.913 92.938 88.003 130.007c37.069 37.069 80.404 66.396 130.007 88.003s102.666 32.399 159.191 32.399c56.504 0 109.588-10.793 159.191-32.399zM645.038 126.054c43.459 18.924 81.326 44.524 113.603 76.8 32.256 32.256 57.856 70.124 76.8 113.603 18.924 43.459 28.406 90.010 28.406 139.592s-9.482 96.133-28.406 139.592c-18.944 43.459-44.544 81.326-76.8 113.603-32.276 32.256-70.144 57.856-113.603 76.8-43.479 18.924-90.010 28.406-139.592 28.406s-96.133-9.462-139.592-28.406c-43.479-18.944-81.347-44.544-113.603-76.8-32.276-32.276-57.876-70.144-76.8-113.603-18.944-43.479-28.406-90.010-28.406-139.592s9.462-96.133 28.406-139.592c18.924-43.479 44.524-81.347 76.8-113.603 32.256-32.276 70.124-57.876 113.603-76.8 43.459-18.944 90.010-28.406 139.592-28.406s96.113 9.462 139.592 28.406zM677.437 397.64c4.792-5.345 7.209-11.469 7.209-18.391 0-6.943-2.396-13.066-7.209-18.391-2.683-2.13-5.591-3.871-8.806-5.202-3.195-1.331-6.41-2.007-9.605-2.007s-6.41 0.655-9.605 2.007c-3.195 1.331-6.144 3.052-8.806 5.202l-135.209 136.008-135.209-136.008c-5.345-4.792-11.489-7.209-18.391-7.209-6.943 0-13.087 2.396-18.391 7.209-4.792 5.325-7.209 11.469-7.209 18.391s2.396 13.066 7.209 18.391l153.6 153.6c5.325 4.792 11.469 7.209 18.391 7.209s13.066-2.396 18.391-7.209l153.641-153.6z" />
<glyph unicode="&#xe908;" glyph-name="e-09" d="M153.436 469.688c0 3.195 0.799 6.41 2.396 9.605s3.461 6.124 5.591 8.806l281.6 256c3.727 3.195 8.11 5.202 13.21 6.001 5.059 0.799 9.994 0.123 14.807-2.007 4.792-2.13 8.52-5.202 11.203-9.196 2.662-3.994 3.994-8.663 3.994-14.008v-128.799c63.468-2.13 119.194-12.268 167.199-30.392 48.005-18.145 88.125-44.278 120.402-78.397 32.256-34.14 56.402-76.268 72.397-126.403s24.003-107.991 24.003-173.609c0-5.878-1.741-11.080-5.202-15.606-3.482-4.547-7.885-7.598-13.21-9.196-1.597 0-2.949-0.143-3.994-0.41-1.085-0.266-2.13-0.41-3.195-0.41-4.28 0-8.397 1.065-12.39 3.195s-7.086 5.059-9.196 8.806c-18.145 29.86-36.68 54.006-55.603 72.397-18.944 18.391-40.94 32.666-66.007 42.803-25.088 10.138-54.804 16.937-89.19 20.398-34.406 3.461-76.39 5.468-125.993 6.001v-128c0-5.345-1.475-10.138-4.403-14.397-2.949-4.26-6.799-7.475-11.592-9.605-4.792-1.597-9.748-1.864-14.807-0.799-5.079 1.065-9.482 3.195-13.21 6.41l-281.6 281.6c-2.13 2.662-3.871 5.591-5.202 8.806-1.331 3.195-2.007 6.656-2.007 10.404zM215.839 468.091l219.197-219.197v91.996c0 6.922 2.519 12.923 7.598 18.002 5.059 5.059 11.059 7.598 18.002 7.598 46.408 0 87.47-1.208 123.208-3.604 35.717-2.396 67.604-6.943 95.601-13.599 27.996-6.676 52.797-16.261 74.404-28.795s41.452-28.672 59.597-48.394c-5.878 46.408-17.592 86.794-35.205 121.201s-40.94 62.935-70.001 85.606c-29.082 22.651-64.287 39.465-105.595 50.401-41.349 10.936-88.678 16.404-142.008 16.404-6.943 0-12.943 2.54-18.002 7.598-5.079 5.059-7.598 11.059-7.598 18.002v96.010l-219.197-199.229z" />
<glyph unicode="&#xe909;" glyph-name="e-10" d="M878.060 459.284c-1.331-3.195-3.072-6.144-5.202-8.806l-281.6-281.6c-3.748-3.195-8.131-5.345-13.21-6.41s-9.994-0.799-14.807 0.799c-4.792 2.13-8.684 5.325-11.592 9.605-2.949 4.26-4.403 9.052-4.403 14.397v128c-49.603-0.532-91.607-2.54-125.993-6.001-34.406-3.461-64.143-10.26-89.19-20.398-25.088-10.138-47.084-24.392-66.007-42.803-18.944-18.391-37.478-42.537-55.603-72.397-2.13-3.748-5.202-6.676-9.196-8.806s-8.131-3.174-12.39-3.174c-1.085 0-2.13 0.123-3.195 0.41-1.085 0.266-2.396 0.41-3.994 0.41-5.345 1.597-9.748 4.669-13.21 9.196-3.482 4.526-5.202 9.728-5.202 15.606 0 65.597 8.008 123.453 24.003 173.609 15.995 50.135 40.12 92.262 72.397 126.403 32.256 34.14 72.397 60.252 120.402 78.397 48.005 18.125 103.711 28.262 167.199 30.392v128.778c0 5.325 1.311 9.994 3.994 14.008 2.662 3.994 6.41 7.066 11.203 9.196s9.728 2.806 14.807 2.007c5.059-0.799 9.462-2.806 13.21-6.001l281.6-256c2.13-2.662 3.994-5.591 5.591-8.806s2.396-6.41 2.396-9.605c0-3.748-0.676-7.209-2.007-10.404zM817.664 468.091l-219.197 199.209v-96.010c0-6.943-2.54-12.943-7.598-18.002-5.079-5.079-11.080-7.598-18.002-7.598-53.33 0-100.68-5.468-142.008-16.404-41.349-10.936-76.534-27.73-105.595-50.401-29.082-22.671-52.408-51.2-70.001-85.606s-29.348-74.793-35.205-121.201c18.125 19.722 37.99 35.86 59.597 48.394s46.408 22.139 74.404 28.795c27.996 6.656 59.863 11.203 95.601 13.599 35.717 2.396 76.8 3.604 123.208 3.604 6.922 0 12.923-2.54 18.002-7.598 5.059-5.079 7.598-11.080 7.598-18.002v-91.996l219.197 219.218z" />
<glyph unicode="&#xe90a;" glyph-name="e-11" d="M141.885 534.446c-4.792 2.13-8.684 5.325-11.592 9.605-2.949 4.26-4.403 9.052-4.403 14.397v256c0 6.922 2.519 12.923 7.598 18.002 5.059 5.059 11.059 7.598 18.002 7.598h256c5.325 0 10.117-1.475 14.397-4.403 4.26-2.949 7.455-6.799 9.605-11.592 1.597-4.792 1.864-9.748 0.799-14.807-1.085-5.079-3.195-9.462-6.41-13.21l-110.408-109.609 136.008-135.209c4.792-5.345 7.209-11.469 7.209-18.391 0-6.943-2.396-13.066-7.209-18.391-2.683-2.13-5.591-3.871-8.806-5.202-3.195-1.331-6.41-2.007-9.605-2.007s-6.41 0.655-9.605 2.007c-3.195 1.331-6.144 3.052-8.806 5.202l-135.209 136.008-109.609-110.408c-2.683-2.13-5.591-3.871-8.806-5.202-3.195-1.331-6.41-2.007-9.605-2.007-1.597 0-3.195 0.123-4.792 0.41-1.536 0.266-3.154 0.676-4.751 1.208zM151.491 72.049c-6.943 0-12.943 2.54-18.002 7.598-5.079 5.079-7.598 11.080-7.598 18.002v256c0 5.325 1.454 10.138 4.403 14.397 2.929 4.26 6.799 7.455 11.592 9.605 4.792 1.597 9.728 1.864 14.807 0.799 5.059-1.065 9.462-3.195 13.21-6.41l109.609-110.408 135.209 136.008c5.325 4.792 11.469 7.209 18.391 7.209s13.066-2.396 18.391-7.209c4.792-5.345 7.209-11.469 7.209-18.391 0-6.943-2.396-13.066-7.209-18.391l-136.008-135.209 110.408-109.609c3.195-3.748 5.325-8.131 6.41-13.21 1.065-5.079 0.799-9.994-0.799-14.807-2.13-4.792-5.345-8.663-9.605-11.592-4.28-2.929-9.073-4.403-14.397-4.403h-256.020zM177.091 620.052l168.796 168.796h-168.796v-168.796zM177.091 123.249h168.796l-168.796 168.796v-168.796zM893.891 814.449v-256c0-5.345-1.475-10.138-4.403-14.397-2.949-4.26-6.799-7.475-11.592-9.605-1.597-0.532-3.195-0.942-4.792-1.208s-3.195-0.41-4.792-0.41c-3.195 0-6.41 0.655-9.605 2.007-3.195 1.331-6.144 3.052-8.806 5.202l-109.609 110.408-135.209-136.008c-2.683-2.13-5.591-3.871-8.806-5.202-3.195-1.331-6.41-2.007-9.605-2.007s-6.41 0.655-9.605 2.007c-3.195 1.331-6.144 3.052-8.806 5.202-4.792 5.325-7.209 11.469-7.209 18.391s2.396 13.066 7.209 18.391l136.008 135.209-110.408 109.609c-3.195 3.727-5.345 8.131-6.41 13.21-1.085 5.059-0.799 9.994 0.799 14.807 2.13 4.792 5.325 8.663 9.605 11.592 4.26 2.929 9.052 4.403 14.397 4.403h256c6.922 0 12.923-2.54 18.002-7.598 5.1-5.079 7.639-11.080 7.639-18.002zM587.489 102.851c1.065 5.059 3.195 9.462 6.41 13.21l110.408 109.609-136.008 135.209c-4.792 5.325-7.209 11.469-7.209 18.391s2.396 13.066 7.209 18.391c5.325 4.792 11.469 7.209 18.391 7.209s13.066-2.396 18.391-7.209l135.209-136.008 109.609 110.408c3.727 3.195 8.11 5.325 13.21 6.41 5.059 1.065 9.994 0.799 14.807-0.799 4.792-2.13 8.663-5.345 11.592-9.605s4.403-9.073 4.403-14.397v-256c0-6.922-2.54-12.923-7.598-18.002-5.079-5.059-11.080-7.598-18.002-7.598h-256c-5.345 0-10.138 1.475-14.397 4.403-4.28 2.949-7.475 6.799-9.605 11.592-1.618 4.792-1.905 9.708-0.819 14.787zM842.691 788.849h-168.796l168.796-168.796v168.796zM673.894 123.249h168.796v168.796l-168.796-168.796z" />
<glyph unicode="&#xe90b;" glyph-name="e-12" d="M159.99 123.249v256c0 5.325 1.454 10.138 4.403 14.397 2.929 4.26 6.799 7.455 11.592 9.605 4.792 1.597 9.728 1.864 14.807 0.799 5.059-1.065 9.462-3.195 13.21-6.41l109.609-110.408 135.209 136.008c5.325 4.792 11.469 7.209 18.391 7.209s13.066-2.396 18.391-7.209c4.792-5.345 7.209-11.469 7.209-18.391 0-6.943-2.396-13.066-7.209-18.391l-136.008-135.209 110.408-109.609c3.195-3.748 5.325-8.131 6.41-13.21 1.065-5.079 0.799-9.994-0.799-14.807-2.13-4.792-5.345-8.663-9.605-11.592-4.28-2.949-9.073-4.403-14.397-4.403h-256c-6.943 0-12.943 2.54-18.002 7.598-5.1 5.079-7.619 11.080-7.619 18.022zM211.19 148.849h168.796l-168.796 168.796v-168.796zM569.59 481.649c-3.195 0-6.41 0.655-9.605 2.007-3.195 1.331-6.144 3.052-8.806 5.202-4.792 5.325-7.209 11.469-7.209 18.391s2.396 13.066 7.209 18.391l136.008 135.209-110.408 109.609c-3.195 3.727-5.345 8.131-6.41 13.21-1.085 5.059-0.799 9.994 0.799 14.807 2.13 4.792 5.325 8.663 9.605 11.592 4.26 2.929 9.052 4.403 14.397 4.403h256c6.922 0 12.923-2.54 18.002-7.598 5.059-5.079 7.598-11.080 7.598-18.002v-256c0-5.345-1.475-10.138-4.403-14.397-2.949-4.26-6.799-7.475-11.592-9.605-1.597-0.532-3.195-0.942-4.792-1.208s-3.195-0.41-4.792-0.41c-3.195 0-6.41 0.655-9.605 2.007-3.195 1.331-6.144 3.052-8.806 5.202l-109.609 110.408-135.209-136.008c-2.683-2.13-5.591-3.871-8.806-5.202-3.154-1.352-6.369-2.007-9.564-2.007zM656.794 763.249l168.796-168.796v168.796h-168.796z" />
<glyph unicode="&#xe90c;" glyph-name="e-13" d="M493.609 249.057l-358.4 358.4c-4.792 5.325-7.209 11.469-7.209 18.391s2.396 13.066 7.209 18.391c5.325 4.792 11.469 7.209 18.391 7.209s13.066-2.396 18.391-7.209l340.009-340.767 340.009 340.808c5.325 4.792 11.469 7.209 18.391 7.209s13.066-2.396 18.391-7.209c4.792-5.345 7.209-11.469 7.209-18.391 0-6.943-2.396-13.066-7.209-18.391l-358.4-358.4c-2.683-2.13-5.591-3.871-8.806-5.202-3.195-1.331-6.41-2.007-9.605-2.007s-6.41 0.655-9.605 2.007c-3.174 1.29-6.124 3.031-8.765 5.161z" />
<glyph unicode="&#xe90d;" glyph-name="e-14" d="M736.113 805.069c0-6.943-2.396-13.066-7.209-18.391l-340.787-340.009 340.808-340.009c4.792-5.345 7.209-11.469 7.209-18.391s-2.396-13.066-7.209-18.391c-2.683-2.13-5.591-3.85-8.806-5.202-3.195-1.331-6.41-2.007-9.605-2.007s-6.41 0.676-9.605 2.007c-3.195 1.331-6.144 3.072-8.806 5.202l-358.4 358.4c-4.792 5.325-7.209 11.469-7.209 18.391s2.396 13.066 7.209 18.391l358.4 358.4c5.325 4.792 11.469 7.209 18.391 7.209s13.066-2.396 18.391-7.209c4.833-5.345 7.229-11.469 7.229-18.391z" />
<glyph unicode="&#xe90e;" glyph-name="e-15" d="M322.417 88.269c0 6.922 2.396 13.066 7.209 18.391l340.808 340.009-340.828 339.988c-4.792 5.325-7.209 11.469-7.209 18.391s2.396 13.066 7.209 18.391c5.325 4.792 11.469 7.209 18.391 7.209s13.066-2.396 18.391-7.209l358.4-358.4c4.792-5.345 7.209-11.469 7.209-18.391 0-6.943-2.396-13.066-7.209-18.391l-358.4-358.4c-2.683-2.13-5.591-3.85-8.806-5.202-3.195-1.331-6.41-2.007-9.605-2.007s-6.41 0.676-9.605 2.007c-3.195 1.331-6.144 3.072-8.806 5.202-4.751 5.345-7.148 11.469-7.148 18.412z" />
<glyph unicode="&#xe90f;" glyph-name="e-16" d="M171.848 249.057c-5.345-4.792-11.489-7.209-18.391-7.209-6.943 0-13.087 2.396-18.391 7.209-4.792 5.325-7.209 11.469-7.209 18.391s2.396 13.066 7.209 18.391l358.4 358.4c5.325 4.792 11.469 7.209 18.391 7.209s13.066-2.396 18.391-7.209l358.4-358.4c4.792-5.345 7.209-11.469 7.209-18.391 0-6.943-2.396-13.066-7.209-18.391-2.683-2.13-5.591-3.871-8.806-5.202-3.195-1.331-6.41-2.007-9.605-2.007s-6.41 0.655-9.605 2.007c-3.195 1.331-6.144 3.052-8.806 5.202l-339.968 340.808-340.009-340.808z" />
<glyph unicode="&#xe910;" glyph-name="e-17" d="M854.077 804.905c6.922-1.065 12.513-4.403 16.794-9.994 4.26-5.591 5.857-11.878 4.792-18.801l-26.399-197.591c-0.532-6.41-3.195-11.592-8.008-15.606s-10.404-6.001-16.794-6.001c-0.532 0-1.085 0-1.597 0-0.532 0-1.085 0-1.597 0l-197.591 26.399c-6.943 1.065-12.534 4.403-16.794 9.994-4.28 5.591-5.878 11.858-4.792 18.801 0.512 6.922 3.604 12.534 9.196 16.794s12.124 5.857 19.599 4.792l147.21-19.21c-14.397 21.34-30.945 40.53-49.603 57.61-18.678 17.060-39.076 31.724-61.194 43.991-22.139 12.268-45.609 21.606-70.41 27.996s-50.278 9.605-76.39 9.605c-42.148 0-81.879-8.008-119.194-24.003-37.335-15.995-70.001-37.99-97.997-66.007s-49.992-60.662-66.007-97.997c-15.995-37.335-24.003-77.066-24.003-119.194 0-6.943-2.54-12.943-7.598-18.002-5.079-5.079-11.080-7.598-18.002-7.598-6.943 0-12.943 2.54-18.002 7.598-5.079 5.059-7.598 11.059-7.598 18.002 0 49.603 9.462 96.133 28.406 139.592 18.924 43.459 44.524 81.326 76.8 113.603 32.256 32.256 70.124 57.856 113.603 76.8 43.459 18.924 90.010 28.406 139.592 28.406 28.795 0 56.791-3.338 84.009-9.994 27.197-6.676 53.207-16.261 78.008-28.795s47.862-27.873 69.202-45.998c21.32-18.145 40.264-38.4 56.791-60.805l16.794 123.208c1.065 6.922 4.403 12.657 9.994 17.203 5.571 4.547 11.837 6.267 18.78 5.202zM438.866 280.904c-0.532-6.943-3.604-12.534-9.196-16.794s-12.145-5.878-19.599-4.792l-147.21 19.21c14.397-21.34 30.925-40.53 49.603-57.61 18.657-17.060 39.055-31.744 61.194-43.991 22.118-12.268 45.609-21.606 70.41-27.996s50.258-9.605 76.39-9.605c42.127 0 81.859 8.008 119.194 24.003 37.315 15.995 70.001 37.99 97.997 66.007s49.992 60.662 66.007 97.997c15.995 37.335 24.003 77.066 24.003 119.194 0 6.922 2.519 12.923 7.598 18.002 5.059 5.059 11.059 7.598 18.002 7.598 6.922 0 12.923-2.54 18.002-7.598 5.059-5.079 7.598-11.080 7.598-18.002 0-49.603-9.482-96.133-28.406-139.592-18.944-43.479-44.544-81.347-76.8-113.603-32.276-32.276-70.144-57.876-113.603-76.8-43.479-18.944-90.010-28.406-139.592-28.406-28.795 0-56.791 3.338-84.009 9.994-27.197 6.656-53.207 16.261-78.008 28.795s-47.882 27.853-69.202 45.998c-21.34 18.125-40.284 38.4-56.791 60.805l-16.794-123.208c-1.085-6.41-3.994-11.735-8.806-15.995-4.792-4.26-10.404-6.41-16.794-6.41-0.532 0-1.085 0-1.597 0-0.532 0-1.085 0-1.597 0-6.943 1.065-12.534 4.403-16.794 9.994-4.28 5.591-5.878 11.858-4.792 18.801l26.399 197.591c0.512 6.922 3.604 12.534 9.196 16.794s11.858 5.857 18.801 4.792l197.591-26.399c6.922-1.065 12.513-4.403 16.794-9.994 4.28-5.571 5.878-11.837 4.813-18.78z" />
<glyph unicode="&#xe911;" glyph-name="e-18" d="M201.953 430.674c-3.195 3.727-5.079 8.131-5.591 13.21-0.532 5.059 0.266 9.728 2.396 14.008 2.13 4.26 5.325 7.721 9.605 10.404 4.26 2.662 8.806 3.994 13.599 3.994h153.6v332.78c0 6.922 2.519 12.923 7.598 18.002 5.059 5.059 11.059 7.598 18.002 7.598h204.8c6.922 0 12.923-2.54 18.002-7.598 5.059-5.079 7.598-11.080 7.598-18.002v-332.8h153.6c4.792 0 9.318-1.331 13.599-3.994 4.26-2.662 7.455-6.144 9.605-10.404 2.13-4.26 2.929-8.95 2.396-14.008-0.532-5.079-2.396-9.462-5.591-13.21l-281.6-358.4c-2.13-3.195-5.079-5.591-8.806-7.209-3.748-1.597-7.475-2.396-11.203-2.396-3.748 0-7.475 0.799-11.203 2.396-3.748 1.597-6.676 3.994-8.806 7.209l-281.6 358.42zM274.76 421.069l228.803-291.205 228.803 291.205h-126.403c-6.943 0-12.943 2.54-18.002 7.598-5.079 5.059-7.598 11.059-7.598 18.002v332.8h-153.6v-332.8c0-6.943-2.54-12.943-7.598-18.002-5.079-5.079-11.080-7.598-18.002-7.598h-126.403z" />
<glyph unicode="&#xe912;" glyph-name="e-19" d="M499.446 144.978l-358.4 281.6c-3.195 2.13-5.591 5.059-7.209 8.806-1.597 3.727-2.396 7.455-2.396 11.203 0 3.727 0.799 7.455 2.396 11.203 1.597 3.727 3.994 6.656 7.209 8.806l358.4 281.6c3.727 3.195 8.11 5.059 13.21 5.591 5.059 0.532 9.728-0.266 14.008-2.396 4.26-2.13 7.721-5.345 10.404-9.605 2.662-4.26 3.994-8.806 3.994-13.599v-153.6h332.8c6.922 0 12.923-2.54 18.002-7.598 5.059-5.079 7.598-11.080 7.598-18.002v-204.8c0-6.943-2.54-12.943-7.598-18.002-5.079-5.079-11.080-7.598-18.002-7.598h-332.8v-153.6c0-4.792-1.331-9.339-3.994-13.599-2.683-4.26-6.144-7.475-10.404-9.605-1.597-0.532-3.338-1.065-5.202-1.597-1.884-0.532-3.871-0.799-6.001-0.799-2.683 0-5.345 0.41-8.008 1.208-2.683 0.799-5.345 2.253-8.008 4.383zM198.656 446.587l291.205-228.803v126.403c0 6.922 2.519 12.923 7.598 18.002 5.059 5.059 11.059 7.598 18.002 7.598h332.8v153.6h-332.8c-6.943 0-12.943 2.54-18.002 7.598-5.079 5.059-7.598 11.059-7.598 18.002v126.403l-291.205-228.803z" />
<glyph unicode="&#xe913;" glyph-name="e-20" d="M147.026 318.587c-6.943 0-12.943 2.54-18.002 7.598-5.079 5.059-7.598 11.059-7.598 18.002v204.8c0 6.922 2.519 12.923 7.598 18.002 5.059 5.059 11.059 7.598 18.002 7.598h332.8v153.6c0 4.792 1.311 9.339 3.994 13.599 2.662 4.26 6.124 7.455 10.404 9.605 4.26 2.13 8.929 2.929 14.008 2.396 5.059-0.532 9.462-2.396 13.21-5.591l358.4-281.6c3.195-2.13 5.591-5.079 7.209-8.806 1.597-3.748 2.396-7.475 2.396-11.203 0-3.748-0.799-7.475-2.396-11.203-1.597-3.748-3.994-6.676-7.209-8.806l-358.4-281.6c-2.683-2.13-5.345-3.584-8.008-4.403-2.683-0.799-5.345-1.208-8.008-1.208-2.13 0-4.137 0.266-6.001 0.799-1.884 0.532-3.604 1.065-5.202 1.597-4.28 2.13-7.741 5.325-10.404 9.605-2.683 4.26-3.994 8.806-3.994 13.599v153.6h-332.8zM172.626 369.787h332.8c6.922 0 12.923-2.54 18.002-7.598 5.059-5.079 7.598-11.080 7.598-18.002v-126.403l291.205 228.803-291.205 228.803v-126.403c0-6.943-2.54-12.943-7.598-18.002-5.079-5.079-11.080-7.598-18.002-7.598h-332.8v-153.6z" />
<glyph unicode="&#xe914;" glyph-name="e-21" d="M230.257 421.458c-4.792 0-9.339 1.331-13.599 3.994-4.28 2.662-7.475 6.124-9.605 10.404-2.13 4.26-2.949 8.929-2.396 14.008 0.512 5.059 2.396 9.462 5.591 13.21l281.6 358.4c4.792 5.857 11.469 8.806 20.009 8.806 8.52 0 15.196-2.949 20.009-8.806l281.6-358.4c3.195-3.748 5.059-8.131 5.591-13.21 0.512-5.079-0.287-9.748-2.396-14.008-2.13-4.26-5.345-7.741-9.605-10.404-4.28-2.662-8.806-3.994-13.599-3.994h-153.6v-332.8c0-6.922-2.54-12.923-7.598-18.002-5.079-5.059-11.080-7.598-18.002-7.598h-204.8c-6.943 0-12.943 2.54-18.002 7.598-5.079 5.079-7.598 11.080-7.598 18.002v332.8h-153.6zM283.054 472.658h126.403c6.922 0 12.923-2.54 18.002-7.598 5.059-5.079 7.598-11.080 7.598-18.002v-332.8h153.6v332.8c0 6.922 2.519 12.923 7.598 18.002 5.059 5.059 11.059 7.598 18.002 7.598h126.403l-228.803 291.205-228.803-291.205z" />
<glyph unicode="&#xe915;" glyph-name="e-22" d="M905.667 216.269c0-6.943-2.54-12.943-7.598-18.002-5.079-5.079-11.080-7.598-18.002-7.598h-512c-3.748 0-7.209 0.799-10.404 2.396s-6.144 3.727-8.806 6.41l-204.8 230.4c-4.28 4.792-6.41 10.404-6.41 16.794s2.13 12.001 6.41 16.794l204.8 230.4c2.662 2.662 5.591 4.792 8.806 6.41s6.656 2.396 10.404 2.396h512c6.922 0 12.923-2.54 18.002-7.598 5.059-5.079 7.598-11.080 7.598-18.002v-460.8zM854.467 651.469h-475.197l-181.596-204.8 181.596-204.8h475.197v409.6zM477.655 351.457c-4.792 5.325-7.209 11.469-7.209 18.391s2.396 13.066 7.209 18.391l59.208 58.409-59.208 58.409c-4.792 5.325-7.209 11.469-7.209 18.391s2.396 13.066 7.209 18.391c5.325 4.792 11.469 7.209 18.391 7.209s13.066-2.396 18.391-7.209l58.409-59.208 58.409 59.208c5.325 4.792 11.469 7.209 18.391 7.209s13.066-2.396 18.391-7.209c4.792-5.345 7.209-11.469 7.209-18.391 0-6.943-2.396-13.066-7.209-18.391l-59.208-58.409 59.208-58.409c4.792-5.345 7.209-11.469 7.209-18.391 0-6.943-2.396-13.066-7.209-18.391-2.683-2.13-5.591-3.871-8.806-5.202-3.195-1.331-6.39-2.007-9.605-2.007s-6.41 0.655-9.605 2.007c-3.195 1.331-6.144 3.052-8.806 5.202l-58.409 59.208-58.409-59.208c-2.683-2.13-5.591-3.871-8.806-5.202-3.195-1.331-6.41-2.007-9.605-2.007s-6.41 0.655-9.605 2.007c-3.113 1.331-6.062 3.072-8.724 5.202z" />
<glyph unicode="&#xe916;" glyph-name="e-23" d="M911.892 848.671c5.059-5.079 7.598-11.080 7.598-18.002v-768c0-6.922-2.54-12.923-7.598-18.002-5.079-5.059-11.080-7.598-18.002-7.598h-768c-6.943 0-12.943 2.54-18.002 7.598-5.079 5.079-7.598 11.080-7.598 18.002v768c0 6.922 2.519 12.923 7.598 18.002 5.059 5.059 11.059 7.598 18.002 7.598h768c6.922 0 12.923-2.54 18.002-7.598zM868.291 805.069h-716.8v-716.8h716.8v716.8zM474.685 397.455c-3.195 1.331-6.144 3.052-8.806 5.202-4.792 5.325-7.209 11.469-7.209 18.391s2.396 13.066 7.209 18.391l238.408 237.609h-143.196c-6.943 0-12.943 2.54-18.002 7.598-5.079 5.059-7.598 11.059-7.598 18.002 0 6.922 2.519 12.923 7.598 18.002 5.059 5.059 11.059 7.598 18.002 7.598h204.8c1.597 0 3.195-0.143 4.792-0.41s3.195-0.676 4.792-1.208c3.195-1.597 6.001-3.604 8.397-6.001s4.403-5.202 6.001-8.397c0.512-1.597 0.922-3.195 1.208-4.792 0.266-1.597 0.41-3.195 0.41-4.792v-204.8c0-6.943-2.54-12.943-7.598-18.002-5.079-5.079-11.080-7.598-18.002-7.598-6.943 0-12.943 2.54-18.002 7.598-5.079 5.059-7.598 11.059-7.598 18.002v143.196l-237.588-238.387c-2.683-2.13-5.591-3.871-8.806-5.202-3.195-1.331-6.41-2.007-9.605-2.007s-6.39 0.676-9.605 2.007z" />
<glyph unicode="&#xe917;" glyph-name="e-24" d="M920.392 848.671c5.059-5.079 7.598-11.080 7.598-18.002v-768c0-6.922-2.54-12.923-7.598-18.002-5.079-5.059-11.080-7.598-18.002-7.598h-768c-6.943 0-12.943 2.54-18.002 7.598-5.079 5.079-7.598 11.080-7.598 18.002v768c0 6.922 2.519 12.923 7.598 18.002 5.059 5.059 11.059 7.598 18.002 7.598h768c6.922 0 12.923-2.54 18.002-7.598zM876.79 805.069h-716.8v-716.8h716.8v716.8zM252.785 166.666c-3.195 1.597-6.001 3.604-8.397 6.001s-4.403 5.202-6.001 8.397c-0.532 1.597-0.942 3.195-1.208 4.792-0.287 1.597-0.41 3.195-0.41 4.792v204.8c0 6.922 2.519 12.923 7.598 18.002 5.059 5.059 11.059 7.598 18.002 7.598 6.922 0 12.923-2.54 18.002-7.598 5.059-5.079 7.598-11.080 7.598-18.002v-143.196l237.609 238.408c5.325 4.792 11.469 7.209 18.391 7.209s13.066-2.396 18.391-7.209c4.792-5.345 7.209-11.469 7.209-18.391 0-6.943-2.396-13.066-7.209-18.391l-238.367-237.609h143.196c6.922 0 12.923-2.54 18.002-7.598 5.059-5.079 7.598-11.080 7.598-18.002 0-6.943-2.54-12.943-7.598-18.002-5.079-5.079-11.080-7.598-18.002-7.598h-204.8c-1.597 0-3.195 0.123-4.792 0.41-1.597 0.246-3.195 0.655-4.813 1.188z" />
<glyph unicode="&#xe918;" glyph-name="e-25" d="M704.41 597.996c3.994-2.396 7.066-5.734 9.196-9.994 2.662-4.26 3.727-8.806 3.195-13.599s-2.13-9.073-4.792-12.8l-179.2-256c-2.13-3.748-5.079-6.533-8.806-8.397-3.727-1.884-7.741-2.806-12.001-2.806-4.28 0-8.274 0.922-12.001 2.806-3.748 1.864-6.676 4.669-8.806 8.397l-179.2 256c-2.683 3.727-4.28 8.008-4.792 12.8-0.532 4.792 0.512 9.339 3.195 13.599 2.13 4.26 5.202 7.598 9.196 9.994s8.397 3.604 13.21 3.604h358.4c4.813 0 9.196-1.208 13.21-3.604zM642.396 550.4h-260.792l130.396-185.61 130.396 185.61z" />
<glyph unicode="&#xe919;" glyph-name="e-26" d="M657.715 635.576c4.792 0.532 9.318-0.532 13.599-3.195 4.26-2.13 7.598-5.202 9.994-9.196s3.604-8.397 3.604-13.21v-358.4c0-4.792-1.208-9.196-3.604-13.21s-5.734-7.066-9.994-9.196c-2.13-1.065-4.137-1.864-6.001-2.396-1.884-0.532-3.871-0.799-6.001-0.799-2.683 0-5.202 0.41-7.598 1.208s-4.69 2.007-6.799 3.604l-256 179.2c-3.748 2.13-6.533 5.059-8.397 8.806-1.884 3.727-2.806 7.721-2.806 12.001 0 4.26 0.922 8.253 2.806 12.001 1.864 3.727 4.669 6.656 8.397 8.806l256 179.2c3.727 2.621 8.008 4.219 12.8 4.772zM633.713 561.172l-185.61-130.396 185.61-130.396v260.792z" />
<glyph unicode="&#xe91a;" glyph-name="e-27" d="M413.614 630.764l256-179.2c3.727-2.13 6.513-5.079 8.397-8.806 1.864-3.748 2.806-7.741 2.806-12.001s-0.942-8.274-2.806-12.001c-1.884-3.748-4.69-6.676-8.397-8.806l-256-179.2c-2.13-1.597-4.403-2.806-6.799-3.604s-4.936-1.208-7.598-1.208c-2.13 0-4.137 0.266-6.001 0.799-1.884 0.532-3.871 1.331-6.001 2.396-4.28 2.13-7.598 5.202-9.994 9.196s-3.604 8.397-3.604 13.21v358.4c0 4.792 1.208 9.196 3.604 13.21s5.714 7.066 9.994 9.196c4.26 2.13 8.806 3.052 13.599 2.806s9.052-1.72 12.8-4.383zM610.406 430.776l-185.61 130.396v-260.792l185.61 130.396z" />
<glyph unicode="&#xe91b;" glyph-name="e-28" d="M511.857 583.578c9.052 0 15.995-3.461 20.808-10.404l179.2-256c2.662-3.748 4.26-8.008 4.792-12.8 0.512-4.792-0.532-9.339-3.195-13.599-2.13-4.26-5.202-7.598-9.196-9.994s-8.397-3.604-13.21-3.604h-358.4c-4.792 0-9.196 1.208-13.21 3.604s-7.086 5.734-9.196 9.994c-2.683 4.26-3.748 8.806-3.195 13.599 0.512 4.792 2.13 9.052 4.792 12.8l179.2 256c4.792 6.922 11.715 10.404 20.808 10.404zM381.46 328.376h260.792l-130.396 185.61-130.396-185.61z" />
<glyph unicode="&#xe91c;" glyph-name="e-29" d="M520.479 814.776c6.922 0 12.923-2.54 18.002-7.598 5.059-5.079 7.598-11.080 7.598-18.002v-655.196l186.409 187.208c5.325 4.792 11.469 7.209 18.391 7.209s13.066-2.396 18.391-7.209c4.792-5.345 7.209-11.469 7.209-18.391 0-6.943-2.396-13.066-7.209-18.391l-230.4-230.4c-1.597-1.065-3.072-2.007-4.403-2.806s-2.806-1.72-4.403-2.806c-1.597-0.532-3.195-0.922-4.792-1.208-1.597-0.266-3.195-0.41-4.792-0.41s-3.195 0.143-4.792 0.41c-1.597 0.266-3.195 0.676-4.792 1.208-1.597 1.065-3.072 2.007-4.403 2.806s-2.806 1.741-4.403 2.806l-230.4 230.4c-4.792 5.325-7.209 11.469-7.209 18.391s2.396 13.066 7.209 18.391c5.325 4.792 11.469 7.209 18.391 7.209s13.066-2.396 18.391-7.209l186.409-187.208v655.196c0 6.922 2.519 12.923 7.598 18.002 5.059 5.059 11.059 7.598 18.002 7.598z" />
<glyph unicode="&#xe91d;" glyph-name="e-30" d="M879.944 412.774c-5.079-5.079-11.080-7.598-18.002-7.598h-655.196l187.208-186.409c4.792-5.345 7.209-11.469 7.209-18.391 0-6.943-2.396-13.066-7.209-18.391-2.683-2.13-5.591-3.871-8.806-5.202-3.195-1.331-6.41-2.007-9.605-2.007s-6.41 0.655-9.605 2.007c-3.195 1.331-6.144 3.052-8.806 5.202l-230.38 230.38c-1.085 1.597-2.007 3.052-2.806 4.403-0.799 1.331-1.741 2.806-2.806 4.403-1.085 3.195-1.597 6.41-1.597 9.605s0.512 6.41 1.597 9.605c1.065 1.597 2.007 3.052 2.806 4.403 0.799 1.331 1.72 2.806 2.806 4.403l230.4 230.4c5.325 4.792 11.469 7.209 18.391 7.209s13.066-2.396 18.391-7.209c4.792-5.345 7.209-11.469 7.209-18.391 0-6.943-2.396-13.066-7.209-18.391l-187.208-186.409h655.196c6.922 0 12.923-2.54 18.002-7.598 5.059-5.079 7.598-11.080 7.598-18.002 0.020-6.963-2.519-12.964-7.578-18.022z" />
<glyph unicode="&#xe91e;" glyph-name="e-31" d="M131.441 430.776c0 6.922 2.519 12.923 7.598 18.002 5.059 5.059 11.059 7.598 18.002 7.598h655.196l-187.187 186.388c-4.792 5.325-7.209 11.469-7.209 18.391s2.396 13.066 7.209 18.391c5.325 4.792 11.469 7.209 18.391 7.209s13.066-2.396 18.391-7.209l230.4-230.4c1.065-1.597 2.007-3.072 2.806-4.403s1.72-2.806 2.806-4.403c1.065-3.195 1.597-6.41 1.597-9.605s-0.532-6.41-1.597-9.605c-1.085-1.597-2.007-3.072-2.806-4.403s-1.741-2.806-2.806-4.403l-230.4-230.4c-2.683-2.13-5.591-3.871-8.806-5.202-3.195-1.331-6.41-2.007-9.605-2.007s-6.41 0.655-9.605 2.007c-3.195 1.331-6.144 3.052-8.806 5.202-4.792 5.325-7.209 11.469-7.209 18.391s2.396 13.066 7.209 18.391l187.208 186.409h-655.176c-6.943 0-12.943 2.54-18.002 7.598-5.079 5.12-7.598 11.121-7.598 18.063z" />
<glyph unicode="&#xe91f;" glyph-name="e-32" d="M505.426 46.776c-6.943 0-12.943 2.54-18.002 7.598-5.079 5.079-7.598 11.080-7.598 18.002v655.196l-186.409-187.208c-5.345-4.792-11.489-7.209-18.391-7.209-6.943 0-13.087 2.396-18.391 7.209-4.792 5.325-7.209 11.469-7.209 18.391s2.396 13.066 7.209 18.391l230.4 230.4c1.597 1.065 3.052 2.007 4.403 2.806 1.311 0.799 2.806 1.72 4.403 2.806 3.195 1.065 6.41 1.597 9.605 1.597s6.41-0.532 9.605-1.597c1.597-1.065 3.052-2.007 4.403-2.806 1.311-0.799 2.806-1.741 4.403-2.806l230.4-230.4c4.792-5.345 7.209-11.469 7.209-18.391 0-6.943-2.396-13.066-7.209-18.391-2.683-2.13-5.591-3.871-8.806-5.202-3.195-1.331-6.41-2.007-9.605-2.007s-6.41 0.655-9.605 2.007c-3.195 1.331-6.144 3.052-8.806 5.202l-186.409 187.208v-655.196c0-6.922-2.54-12.923-7.598-18.002-5.079-5.059-11.080-7.598-18.002-7.598z" />
<glyph unicode="&#xe920;" glyph-name="e-33" d="M671.048 807.977c49.603-21.606 92.918-50.934 130.007-88.003 37.069-37.069 66.396-80.404 88.003-130.007s32.399-102.666 32.399-159.191c0-56.545-10.793-109.609-32.399-159.191s-50.934-92.938-88.003-130.007c-37.089-37.069-80.404-66.396-130.007-88.003s-102.687-32.399-159.191-32.399c-56.545 0-109.609 10.793-159.191 32.399s-92.938 50.934-130.007 88.003c-37.089 37.069-66.396 80.404-88.003 130.007s-32.399 102.666-32.399 159.191c0 56.525 10.793 109.609 32.399 159.191s50.913 92.938 88.003 130.007c37.069 37.069 80.404 66.396 130.007 88.003s102.666 32.399 159.191 32.399c56.504 0 109.588-10.813 159.191-32.399zM651.448 100.762c43.459 18.924 81.326 44.524 113.603 76.8 32.256 32.256 57.856 70.124 76.8 113.603 18.924 43.459 28.406 90.010 28.406 139.592s-9.482 96.133-28.406 139.592c-18.944 43.459-44.544 81.326-76.8 113.603-32.276 32.256-70.144 57.856-113.603 76.8-43.479 18.924-90.010 28.406-139.592 28.406s-96.133-9.462-139.592-28.406c-43.479-18.944-81.347-44.544-113.603-76.8-32.276-32.276-57.876-70.144-76.8-113.603-18.944-43.479-28.406-90.010-28.406-139.592s9.462-96.133 28.406-139.592c18.924-43.479 44.524-81.347 76.8-113.603 32.256-32.276 70.124-57.876 113.603-76.8 43.459-18.944 90.010-28.406 139.592-28.406s96.113 9.482 139.592 28.406zM653.046 401.572c3.994-2.396 7.066-5.734 9.196-9.994 2.662-4.26 3.727-8.806 3.195-13.599s-2.13-9.339-4.792-13.599l-128-179.2c-2.13-3.195-5.079-5.734-8.806-7.598-3.748-1.864-7.741-2.806-12.001-2.806-4.28 0-8.274 0.922-12.001 2.806-3.748 1.864-6.676 4.403-8.806 7.598l-128 179.2c-2.683 4.26-4.28 8.806-4.792 13.599-0.532 4.792 0.512 9.339 3.195 13.599 2.13 4.26 5.202 7.598 9.196 9.994s8.397 3.604 13.21 3.604h102.4v256c0 6.922 2.519 12.923 7.598 18.002 5.059 5.059 11.059 7.598 18.002 7.598 6.922 0 12.923-2.54 18.002-7.598 5.059-5.079 7.598-11.080 7.598-18.002v-256h102.4c4.813 0 9.216-1.208 13.21-3.604zM590.254 353.976h-156.795l78.397-109.609 78.397 109.609z" />
<glyph unicode="&#xe921;" glyph-name="e-34" d="M680.858 807.977c49.603-21.606 92.918-50.934 130.007-88.003 37.069-37.069 66.396-80.404 88.003-130.007s32.399-102.666 32.399-159.191c0-56.545-10.793-109.609-32.399-159.191s-50.934-92.938-88.003-130.007c-37.089-37.069-80.404-66.396-130.007-88.003s-102.687-32.399-159.191-32.399c-56.545 0-109.609 10.793-159.191 32.399s-92.938 50.934-130.007 88.003c-37.089 37.069-66.396 80.404-88.003 130.007s-32.399 102.666-32.399 159.191c0 56.525 10.793 109.609 32.399 159.191s50.913 92.938 88.003 130.007c37.069 37.069 80.404 66.396 130.007 88.003s102.666 32.399 159.191 32.399c56.525 0 109.588-10.813 159.191-32.399zM661.258 100.762c43.459 18.924 81.326 44.524 113.603 76.8 32.256 32.256 57.856 70.124 76.8 113.603 18.924 43.459 28.406 90.010 28.406 139.592s-9.482 96.133-28.406 139.592c-18.944 43.459-44.544 81.326-76.8 113.603-32.276 32.256-70.144 57.856-113.603 76.8-43.479 18.924-90.010 28.406-139.592 28.406s-96.133-9.462-139.592-28.406c-43.479-18.944-81.347-44.544-113.603-76.8-32.276-32.276-57.876-70.144-76.8-113.603-18.944-43.479-28.406-90.010-28.406-139.592s9.462-96.133 28.406-139.592c18.924-43.479 44.524-81.347 76.8-113.603 32.256-32.276 70.124-57.876 113.603-76.8 43.459-18.944 90.010-28.406 139.592-28.406s96.113 9.482 139.592 28.406zM770.068 448.778c5.059-5.079 7.598-11.080 7.598-18.002 0-6.943-2.54-12.943-7.598-18.002-5.079-5.079-11.080-7.598-18.002-7.598h-256v-102.4c0-4.792-1.208-9.196-3.604-13.21s-5.734-7.066-9.994-9.196c-2.13-1.065-4.137-1.864-6.001-2.396-1.884-0.532-3.871-0.799-6.001-0.799-2.683 0-5.202 0.41-7.598 1.208s-4.936 2.007-7.598 3.604l-179.2 128c-3.195 2.13-5.734 5.059-7.598 8.806-1.884 3.727-2.806 7.721-2.806 12.001 0 4.26 0.922 8.253 2.806 12.001 1.864 3.727 4.403 6.656 7.598 8.806l179.2 128c4.26 2.662 8.806 4.26 13.599 4.792s9.318-0.532 13.599-3.195c4.26-2.13 7.598-5.202 9.994-9.196s3.604-8.397 3.604-13.21v-102.4h256c6.922-0.020 12.923-2.56 18.002-7.619zM444.867 509.174l-109.609-78.397 109.609-78.397v156.795z" />
<glyph unicode="&#xe922;" glyph-name="e-35" d="M669.102 807.977c49.603-21.606 92.918-50.934 130.007-88.003 37.069-37.069 66.396-80.404 88.003-130.007s32.399-102.666 32.399-159.191c0-56.545-10.793-109.609-32.399-159.191s-50.934-92.938-88.003-130.007c-37.089-37.069-80.404-66.396-130.007-88.003s-102.687-32.399-159.191-32.399c-56.545 0-109.609 10.793-159.191 32.399s-92.938 50.934-130.007 88.003c-37.089 37.069-66.396 80.404-88.003 130.007s-32.399 102.666-32.399 159.191c0 56.525 10.793 109.609 32.399 159.191s50.913 92.938 88.003 130.007c37.069 37.069 80.404 66.396 130.007 88.003s102.666 32.399 159.191 32.399c56.504 0 109.588-10.813 159.191-32.399zM649.503 100.762c43.459 18.924 81.326 44.524 113.603 76.8 32.256 32.256 57.856 70.124 76.8 113.603 18.924 43.459 28.406 90.010 28.406 139.592s-9.482 96.133-28.406 139.592c-18.944 43.459-44.544 81.326-76.8 113.603-32.276 32.256-70.144 57.856-113.603 76.8-43.479 18.924-90.010 28.406-139.592 28.406s-96.133-9.462-139.592-28.406c-43.479-18.944-81.347-44.544-113.603-76.8-32.276-32.276-57.876-70.144-76.8-113.603-18.944-43.479-28.406-90.010-28.406-139.592s9.462-96.133 28.406-139.592c18.924-43.479 44.524-81.347 76.8-113.603 32.256-32.276 70.124-57.876 113.603-76.8 43.459-18.944 90.010-28.406 139.592-28.406s96.092 9.482 139.592 28.406zM755.487 451.564c3.195-2.13 5.714-5.079 7.598-8.806 1.864-3.748 2.806-7.741 2.806-12.001s-0.942-8.274-2.806-12.001c-1.884-3.748-4.403-6.676-7.598-8.806l-179.2-128c-2.683-1.597-5.202-2.806-7.598-3.604s-4.936-1.208-7.598-1.208c-2.13 0-4.137 0.266-6.001 0.799-1.884 0.532-3.871 1.331-6.001 2.396-4.28 2.13-7.598 5.202-9.994 9.196s-3.604 8.397-3.604 13.21v102.4h-256c-6.943 0-12.943 2.54-18.002 7.598-5.079 5.059-7.598 11.059-7.598 18.002 0 6.922 2.519 12.923 7.598 18.002 5.059 5.059 11.059 7.598 18.002 7.598h256v102.4c0 4.792 1.208 9.196 3.604 13.21s5.714 7.066 9.994 9.196c4.26 2.662 8.806 3.727 13.599 3.195s9.318-2.13 13.599-4.792l179.2-127.98zM696.3 430.776l-109.609 78.397v-156.795l109.609 78.397z" />
<glyph unicode="&#xe923;" glyph-name="e-36" d="M677.601 807.977c49.603-21.606 92.918-50.934 130.007-88.003 37.069-37.069 66.396-80.404 88.003-130.007s32.399-102.666 32.399-159.191c0-56.545-10.793-109.609-32.399-159.191s-50.934-92.938-88.003-130.007c-37.089-37.069-80.404-66.396-130.007-88.003s-102.687-32.399-159.191-32.399c-56.545 0-109.609 10.793-159.191 32.399s-92.938 50.934-130.007 88.003c-37.089 37.069-66.396 80.404-88.003 130.007s-32.399 102.666-32.399 159.191c0 56.525 10.793 109.609 32.399 159.191s50.913 92.938 88.003 130.007c37.069 37.069 80.404 66.396 130.007 88.003s102.666 32.399 159.191 32.399c56.504 0 109.588-10.813 159.191-32.399zM658.002 100.762c43.459 18.924 81.326 44.524 113.603 76.8 32.256 32.256 57.856 70.124 76.8 113.603 18.924 43.459 28.406 90.010 28.406 139.592s-9.482 96.133-28.406 139.592c-18.944 43.459-44.544 81.326-76.8 113.603-32.276 32.256-70.144 57.856-113.603 76.8-43.479 18.924-90.010 28.406-139.592 28.406s-96.133-9.462-139.592-28.406c-43.479-18.944-81.347-44.544-113.603-76.8-32.276-32.276-57.876-70.144-76.8-113.603-18.944-43.479-28.406-90.010-28.406-139.592s9.462-96.133 28.406-139.592c18.924-43.479 44.524-81.347 76.8-113.603 32.256-32.276 70.124-57.876 113.603-76.8 43.459-18.944 90.010-28.406 139.592-28.406s96.113 9.482 139.592 28.406zM667.197 497.172c2.662-4.26 4.26-8.806 4.792-13.599 0.512-4.792-0.532-9.339-3.195-13.599-2.13-4.26-5.202-7.598-9.196-9.994s-8.397-3.604-13.21-3.604h-102.4v-256c0-6.943-2.54-12.943-7.598-18.002-5.079-5.079-11.080-7.598-18.002-7.598-6.943 0-12.943 2.54-18.002 7.598-5.079 5.059-7.598 11.059-7.598 18.002v256h-102.4c-4.792 0-9.196 1.208-13.21 3.604s-7.086 5.734-9.196 9.994c-2.683 4.26-3.748 8.806-3.195 13.599 0.512 4.792 2.13 9.339 4.792 13.599l128 179.2c4.792 6.41 11.715 9.605 20.808 9.605 9.052 0 15.995-3.195 20.808-9.605l128-179.2zM439.992 507.576h156.795l-78.397 109.609-78.397-109.609z" />
<glyph unicode="&#xe924;" glyph-name="e-37" d="M193.659 159.601c-2.683 4.26-3.994 8.806-3.994 13.599s0.512 9.851 1.597 15.196l94.392 196.792c-17.592 22.938-31.334 48.394-41.206 76.39s-14.807 57.999-14.807 90.010c0 38.932 7.311 75.469 21.996 109.609 14.664 34.14 34.652 63.734 60.006 88.801 25.313 25.068 55.194 44.81 89.6 59.208s71.066 21.606 109.998 21.606c38.912 0 75.469-7.332 109.609-21.996 34.12-14.664 64-34.796 89.6-60.396s45.711-55.46 60.396-89.6c14.664-34.14 21.996-70.676 21.996-109.609 0-30.945-4.936-60.662-14.807-89.19-9.871-28.549-23.593-54.272-41.206-77.21l94.392-197.591c2.662-3.748 3.604-7.864 2.806-12.39-0.799-4.547-2.54-8.95-5.202-13.21-2.683-3.748-5.878-6.676-9.605-8.806-3.748-2.13-8.274-2.396-13.599-0.799l-100.004 15.196-51.2-87.204c-2.683-3.748-6.144-6.799-10.404-9.196-4.28-2.396-8.54-3.604-12.8-3.604-1.085 0-1.884 0-2.396 0-4.792 0-9.196 1.597-13.21 4.792s-7.332 6.656-9.994 10.404l-89.6 189.604c-1.085 0-1.884 0-2.396 0-0.532 0-1.331 0-2.396 0-1.085 0-1.884 0-2.396 0-0.532 0-1.331 0-2.396 0l-89.6-189.604c-2.683-4.792-6.001-8.54-9.994-11.203s-8.397-3.994-13.21-3.994h-2.396c-5.345 0-9.871 1.208-13.599 3.604-3.748 2.396-6.943 5.468-9.605 9.196l-51.2 87.204-100.004-15.196c-3.748 0-7.885 0.655-12.39 2.007-4.506 1.311-8.11 3.83-10.772 7.578zM321.659 344.392l-61.604-133.591 69.591 10.404c4.792 0 9.605-1.208 14.397-3.604s8.52-5.468 11.203-9.196l36.004-61.604 60.805 131.195c-24.003 4.792-47.206 12.923-69.591 24.392-22.405 11.469-42.68 25.477-60.805 42.004zM421.253 764.006c-27.996-12.001-52.408-28.406-73.196-49.193s-37.192-45.199-49.193-73.196-18.002-57.999-18.002-90.010c0-26.665 4.26-51.876 12.8-75.592 8.52-23.736 20.521-44.667 36.004-62.792 2.662-1.065 4.669-2.806 6.001-5.202 1.311-2.396 2.806-4.936 4.403-7.598 19.21-21.873 41.329-39.465 66.396-52.797s52.265-21.34 81.592-24.003c2.13 0 3.994 0 5.591 0 2.13 0 4.526 0 7.209 0 2.662 0 5.325 0 8.008 0 2.662 0 5.591 0 8.806 0s6.124 0 8.806 0h2.396c30.925 2.662 59.453 10.67 85.606 24.003 26.112 13.332 48.804 30.925 67.994 52.797 1.597 1.597 3.052 2.929 4.403 3.994 1.311 1.065 2.519 2.396 3.604 3.994 16.527 20.255 29.204 42.537 37.99 66.806 8.806 24.269 13.21 49.725 13.21 76.39 0 32.010-6.001 61.993-18.002 90.010s-28.406 52.408-49.193 73.196-45.199 37.192-73.196 49.193-57.999 18.002-90.010 18.002-62.013-6.001-90.030-18.002zM419.267 510.792l-51.2 55.992c-2.683 2.662-4.547 6.41-5.591 11.203-1.085 4.792-1.085 9.605 0 14.397 1.597 5.325 4.116 9.339 7.598 12.001 3.461 2.662 7.864 4.792 13.21 6.41l74.404 9.605 32.809 67.195c2.662 4.792 6.001 8.54 9.994 11.203s8.397 3.994 13.21 3.994c5.325 0 9.851-1.597 13.599-4.792 3.727-3.195 6.922-6.676 9.605-10.404l33.608-69.591 73.605-10.404c5.325-1.065 9.851-2.949 13.599-5.591 3.727-2.662 6.124-6.676 7.209-12.001 1.065-3.748 1.065-8.008 0-12.8-1.085-4.792-3.748-9.073-8.008-12.8l-53.596-53.596 12.8-74.404c1.597-5.345 1.311-10.26-0.799-14.807-2.13-4.547-5.345-8.131-9.605-10.793-2.13-1.065-4.547-2.13-7.209-3.195-2.683-1.065-5.345-1.597-8.008-1.597-2.683 0-5.079 0-7.209 0s-3.994 0.799-5.591 2.396l-66.396 36.004-66.396-36.004c-5.345-2.662-10.404-3.604-15.196-2.806s-9.073 2.54-12.8 5.202c-4.28 2.662-7.475 6.267-9.605 10.793s-2.396 9.462-0.799 14.807l12.759 74.383zM475.259 569.201l-43.192-7.209 25.6-25.6c3.727-2.662 6.267-6.267 7.598-10.793 1.311-4.547 1.208-8.663-0.41-12.39l-7.209-36.004 32.809 18.391c2.662 1.065 4.915 1.72 6.799 2.007 1.864 0.266 3.85 0.41 6.001 0.41 2.662 0 5.202-0.143 7.598-0.41s4.116-0.942 5.202-2.007l33.608-18.391-4.792 36.004c0 3.727 0.512 7.864 1.597 12.39 1.065 4.526 2.929 8.131 5.591 10.793l27.996 25.6-35.205 4.792c-4.28 1.597-8.008 3.604-11.203 6.001s-5.591 5.468-7.209 9.196l-15.196 33.608-15.196-33.608c-2.683-3.748-5.878-6.799-9.605-9.196-3.727-2.376-7.455-3.584-11.182-3.584zM692.859 218.808l72.008-12.8-64 136.008c-18.145-17.060-38.4-31.191-60.805-42.394s-45.609-19.476-69.591-24.801l60.805-130.396 36.004 61.604c2.662 5.325 6.41 9.052 11.203 11.203 4.772 2.089 9.585 2.621 14.377 1.577z" />
<glyph unicode="&#xe925;" glyph-name="e-38" d="M161.321 101.745c-7.475 0-13.599 2.396-18.391 7.209s-7.209 10.936-7.209 18.391v512c0 1.065 0.123 2.662 0.41 4.792 0.266 2.13 0.922 3.994 2.007 5.591 0 1.065 0.512 2.253 1.597 3.604 1.065 1.331 2.396 2.54 3.994 3.604l153.6 153.6c1.065 1.597 2.253 2.929 3.604 3.994 1.311 1.065 2.519 1.597 3.604 1.597 1.597 1.065 3.461 1.72 5.591 2.007 2.13 0.266 3.727 0.41 4.792 0.41h432.804c7.455 0 13.599-2.396 18.391-7.209s7.209-10.936 7.209-18.391v-286.392c21.852-3.195 42.127-9.994 60.805-20.398 18.657-10.404 34.796-23.47 48.394-39.199 13.599-15.749 24.392-33.608 32.399-53.596s12.001-41.206 12.001-63.59c0-29.348-7.086-56.791-21.197-82.391-14.131-25.6-32.686-46.94-55.603-64v-135.209c0-5.325-1.208-9.851-3.604-13.599-2.396-3.727-5.489-6.922-9.196-9.605-2.683-1.065-4.792-1.72-6.41-2.007-1.597-0.266-3.748-0.41-6.41-0.41-2.683 0-5.345 0.532-8.008 1.597-2.683 1.065-5.079 2.13-7.209 3.195l-61.604 40.796-61.604-40.796c-3.748-2.662-8.008-3.994-12.8-3.994s-9.073 1.331-12.8 3.994c-3.748 2.662-6.799 5.878-9.196 9.605-2.396 3.748-3.604 8.274-3.604 13.599v51.2h-486.359zM724.521 767.345h-384v-128c0-7.475-2.396-13.599-7.209-18.391s-10.936-7.209-18.391-7.209h-128v-460.8h460.8v33.608c-22.938 14.93-41.472 35.205-55.603 60.805s-21.197 53.862-21.197 84.808c0 22.405 3.85 43.602 11.592 63.59 7.721 20.009 18.514 37.868 32.399 53.596 13.865 15.729 30.126 28.795 48.804 39.199 18.657 10.404 38.912 17.203 60.805 20.398v258.396zM289.321 664.945v66.396l-66.396-66.396h66.396zM570.921 536.945c7.455 0 13.599-2.396 18.391-7.209s7.209-10.936 7.209-18.391c0-7.475-2.396-13.599-7.209-18.391s-10.936-7.209-18.391-7.209h-307.2c-7.475 0-13.599 2.396-18.391 7.209s-7.209 10.936-7.209 18.391c0 7.455 2.396 13.599 7.209 18.391s10.916 7.209 18.391 7.209h307.2zM512.512 427.356c4.792-4.792 7.209-10.936 7.209-18.391 0-7.475-2.396-13.599-7.209-18.391s-10.936-7.209-18.391-7.209h-230.4c-7.475 0-13.599 2.396-18.391 7.209s-7.209 10.936-7.209 18.391c0 7.455 2.396 13.599 7.209 18.391s10.916 7.209 18.391 7.209h230.4c7.455-0.020 13.599-2.417 18.391-7.209zM512.512 324.956c4.792-4.792 7.209-10.936 7.209-18.391 0-7.475-2.396-13.599-7.209-18.391s-10.936-7.209-18.391-7.209h-230.4c-7.475 0-13.599 2.396-18.391 7.209s-7.209 10.936-7.209 18.391c0 7.455 2.396 13.599 7.209 18.391s10.916 7.209 18.391 7.209h230.4c7.455-0.020 13.599-2.417 18.391-7.209zM840.909 422.953c-24.801 24.801-55.071 37.192-90.808 37.192s-66.007-12.39-90.808-37.192-37.192-55.071-37.192-90.808c0-21.873 5.325-42.394 15.995-61.604s25.068-34.406 43.192-45.609c1.065 0 2.662-0.532 4.792-1.597s3.727-2.396 4.792-3.994c9.052-4.792 18.657-8.54 28.795-11.203 10.117-2.662 20.255-3.994 30.392-3.994 10.117 0 20.255 1.331 30.392 3.994 10.117 2.662 19.722 6.41 28.795 11.203 1.065 1.597 2.396 2.929 3.994 3.994s3.461 1.597 5.591 1.597c18.125 11.203 32.522 26.399 43.192 45.609s15.995 39.731 15.995 61.604c0.102 35.738-12.308 66.007-37.11 90.808zM803.717 99.348v61.604c-7.475-2.662-15.606-4.669-24.392-6.001-8.806-1.331-17.736-2.007-26.808-2.007s-17.879 0.655-26.399 2.007c-8.54 1.331-16.794 3.338-24.801 6.001v-61.604l36.004 25.6c3.727 2.662 8.397 3.994 14.008 3.994s10.26-1.331 14.008-3.994l36.004-25.6h2.376z" />
<glyph unicode="&#xe926;" glyph-name="e-39" d="M929.608 683.356c4.792-4.792 7.209-10.936 7.209-18.391v-409.6c0-7.475-2.396-13.599-7.209-18.391s-10.936-7.209-18.391-7.209h-25.6v-179.2c0-7.455-2.396-13.599-7.209-18.391s-10.936-7.209-18.391-7.209h-665.6c-7.475 0-13.599 2.396-18.391 7.209s-7.209 10.936-7.209 18.391v179.2h-25.6c-7.475 0-13.599 2.396-18.391 7.209s-7.209 10.936-7.209 18.391v409.6c0 7.455 2.396 13.599 7.209 18.391s10.916 7.209 18.391 7.209h230.4v76.8c0 7.455 2.396 13.599 7.209 18.391s10.916 7.209 18.391 7.209h256c7.455 0 13.599-2.396 18.391-7.209s7.209-10.936 7.209-18.391v-76.8h230.4c7.455-0.020 13.599-2.417 18.391-7.209zM885.617 639.345h-716.8v-358.4h256v51.2c0 7.455 2.396 13.599 7.209 18.391s10.916 7.209 18.391 7.209h153.6c7.455 0 13.599-2.396 18.391-7.209s7.209-10.936 7.209-18.391v-51.2h256v358.4zM834.417 229.745h-204.8v-25.6c0-7.475-2.396-13.599-7.209-18.391s-10.936-7.209-18.391-7.209h-153.6c-7.475 0-13.599 2.396-18.391 7.209s-7.209 10.936-7.209 18.391v25.6h-204.8v-153.6h614.4v153.6zM424.817 690.545h204.8v51.2h-204.8v-51.2zM578.417 306.545h-102.4v-76.8h102.4v76.8z" />
<glyph unicode="&#xe927;" glyph-name="e-40" d="M513.044 818.565c7.455 0 13.455-2.396 18.002-7.209 4.526-4.792 6.267-10.936 5.202-18.391v-76.8h25.6c7.455 0 13.599-2.396 18.391-7.209s7.209-10.936 7.209-18.391v-51.2h51.2c7.455 0 13.599-2.396 18.391-7.209s7.209-10.936 7.209-18.391v-204.8h179.2c7.455 0 13.599-2.396 18.391-7.209s7.209-10.936 7.209-18.391v-358.4c0-7.455-2.396-13.599-7.209-18.391s-10.936-7.209-18.391-7.209h-663.204c-7.475 0-13.599 2.396-18.391 7.209-4.792 4.792-7.209 10.936-7.209 18.391v281.6c0 7.455 2.396 13.599 7.209 18.391 4.792 4.792 10.916 7.209 18.391 7.209h179.2v281.6c0 7.455 2.396 13.599 7.209 18.391s10.916 7.209 18.391 7.209h51.2v51.2c0 7.455 2.396 13.599 7.209 18.391s10.916 7.209 18.391 7.209h25.6v76.8c0 7.455 2.396 13.599 7.209 18.391s10.916 7.209 18.391 7.209zM205.844 50.565h230.4v230.4h-230.4v-230.4zM301.056 222.556c4.792-4.792 7.209-10.936 7.209-18.391 0-7.475-2.396-13.599-7.209-18.391s-10.936-7.209-18.391-7.209h-25.6c-7.475 0-13.599 2.396-18.391 7.209s-7.209 10.936-7.209 18.391c0 7.455 2.396 13.599 7.209 18.391s10.916 7.209 18.391 7.209h25.6c7.434 0 13.578-2.396 18.391-7.209zM301.056 145.756c4.792-4.792 7.209-10.936 7.209-18.391 0-7.475-2.396-13.599-7.209-18.391s-10.936-7.209-18.391-7.209h-25.6c-7.475 0-13.599 2.396-18.391 7.209s-7.209 10.936-7.209 18.391c0 7.455 2.396 13.599 7.209 18.391s10.916 7.209 18.391 7.209h25.6c7.434 0 13.578-2.396 18.391-7.209zM403.456 222.556c4.792-4.792 7.209-10.936 7.209-18.391 0-7.475-2.396-13.599-7.209-18.391s-10.936-7.209-18.391-7.209h-25.6c-7.475 0-13.599 2.396-18.391 7.209s-7.209 10.936-7.209 18.391c0 7.455 2.396 13.599 7.209 18.391s10.916 7.209 18.391 7.209h25.6c7.434 0 13.578-2.396 18.391-7.209zM403.456 145.756c4.792-4.792 7.209-10.936 7.209-18.391 0-7.475-2.396-13.599-7.209-18.391s-10.936-7.209-18.391-7.209h-25.6c-7.475 0-13.599 2.396-18.391 7.209s-7.209 10.936-7.209 18.391c0 7.455 2.396 13.599 7.209 18.391s10.916 7.209 18.391 7.209h25.6c7.434 0 13.578-2.396 18.391-7.209zM545.853 595.354c-4.792 4.792-7.209 10.936-7.209 18.391v51.2h-51.2v-51.2c0-7.475-2.396-13.599-7.209-18.391s-10.936-7.209-18.391-7.209h-51.2v-256h51.2c7.455 0 13.599-2.396 18.391-7.209s7.209-10.936 7.209-18.391v-256h51.2v332.8c0 7.455 2.396 13.599 7.209 18.391s10.916 7.209 18.391 7.209h51.2v179.2h-51.2c-7.475 0.020-13.599 2.417-18.391 7.209zM820.244 357.765h-230.4v-307.2h230.4v307.2zM666.644 306.565c7.455 0 13.599-2.396 18.391-7.209s7.209-10.936 7.209-18.391c0-7.475-2.396-13.599-7.209-18.391s-10.936-7.209-18.391-7.209h-25.6c-7.475 0-13.599 2.396-18.391 7.209s-7.209 10.936-7.209 18.391c0 7.455 2.396 13.599 7.209 18.391s10.916 7.209 18.391 7.209h25.6zM685.056 222.556c4.792-4.792 7.209-10.936 7.209-18.391 0-7.475-2.396-13.599-7.209-18.391s-10.936-7.209-18.391-7.209h-25.6c-7.475 0-13.599 2.396-18.391 7.209s-7.209 10.936-7.209 18.391c0 7.455 2.396 13.599 7.209 18.391s10.916 7.209 18.391 7.209h25.6c7.434 0 13.578-2.396 18.391-7.209zM685.056 145.756c4.792-4.792 7.209-10.936 7.209-18.391 0-7.475-2.396-13.599-7.209-18.391s-10.936-7.209-18.391-7.209h-25.6c-7.475 0-13.599 2.396-18.391 7.209s-7.209 10.936-7.209 18.391c0 7.455 2.396 13.599 7.209 18.391s10.916 7.209 18.391 7.209h25.6c7.434 0 13.578-2.396 18.391-7.209zM725.053 262.554c-4.792 4.792-7.209 10.936-7.209 18.391s2.396 13.599 7.209 18.391 10.916 7.209 18.391 7.209h25.6c7.455 0 13.599-2.396 18.391-7.209s7.209-10.936 7.209-18.391c0-7.475-2.396-13.599-7.209-18.391s-10.936-7.209-18.391-7.209h-25.6c-7.475 0.020-13.599 2.417-18.391 7.209zM725.053 185.754c-4.792 4.792-7.209 10.936-7.209 18.391s2.396 13.599 7.209 18.391 10.916 7.209 18.391 7.209h25.6c7.455 0 13.599-2.396 18.391-7.209s7.209-10.936 7.209-18.391c0-7.475-2.396-13.599-7.209-18.391s-10.936-7.209-18.391-7.209h-25.6c-7.475 0.020-13.599 2.417-18.391 7.209zM725.053 108.954c-4.792 4.792-7.209 10.936-7.209 18.391s2.396 13.599 7.209 18.391 10.916 7.209 18.391 7.209h25.6c7.455 0 13.599-2.396 18.391-7.209s7.209-10.936 7.209-18.391c0-7.475-2.396-13.599-7.209-18.391s-10.936-7.209-18.391-7.209h-25.6c-7.475 0.020-13.599 2.417-18.391 7.209z" />
<glyph unicode="&#xe928;" glyph-name="e-41" d="M674.079 152.965c0-7.475-2.396-13.599-7.209-18.391s-10.936-7.209-18.391-7.209h-256c-7.475 0-13.599 2.396-18.391 7.209s-7.209 10.936-7.209 18.391v91.996c-23.47 14.397-44.81 31.191-64 50.401s-35.348 40.12-48.394 62.792c-13.087 22.651-23.204 46.94-30.392 72.806-7.209 25.866-10.793 52.654-10.793 80.404 0 42.127 8.11 81.859 24.392 119.194 16.261 37.335 38.257 69.857 66.007 97.608 27.73 27.73 60.252 49.725 97.608 66.007 37.315 16.261 77.066 24.392 119.194 24.392s81.859-8.131 119.194-24.392c37.294-16.282 69.837-38.277 97.587-66.007 27.73-27.73 49.725-60.273 66.007-97.608 16.261-37.335 24.392-77.066 24.392-119.194 0-27.73-3.604-54.661-10.793-80.794-7.209-26.132-17.49-50.668-30.802-73.605-13.332-22.938-29.471-43.991-48.394-63.201-18.944-19.21-40.141-35.471-63.59-48.804v-91.996zM694.477 324.157c17.326 15.995 32.113 33.731 44.401 53.207 12.268 19.456 21.606 40.53 27.996 63.201 6.41 22.651 9.605 46.264 9.605 70.799 0 35.205-6.799 68.403-20.398 99.594s-32.010 58.409-55.194 81.592-50.278 41.452-81.203 54.804c-30.945 13.332-64 20.009-99.205 20.009s-68.403-6.799-99.594-20.398-58.409-32.010-81.592-55.194-41.472-50.278-54.804-81.203c-13.332-30.945-20.009-64-20.009-99.205 0-24.535 3.195-48.148 9.605-70.799 6.41-22.671 15.729-43.868 27.996-63.59 12.268-19.743 27.054-37.478 44.401-53.207 17.326-15.749 36.925-29.204 58.798-40.407 3.727-2.662 6.799-5.878 9.196-9.605 2.396-3.748 3.604-8.274 3.604-13.599v-81.592h204.8v81.592c0 5.325 1.208 9.851 3.604 13.599 2.396 3.727 5.468 6.922 9.196 9.605 21.852 11.203 41.452 24.801 58.798 40.796zM630.866 477.757c4.792 5.325 10.67 8.008 17.592 8.008s12.8-2.662 17.592-8.008c5.325-4.792 8.008-10.67 8.008-17.592 0-6.943-2.683-12.8-8.008-17.592l-76.8-76.8c-2.13-2.662-4.936-4.669-8.397-6.001-3.482-1.331-6.533-2.007-9.196-2.007-2.683 0-5.734 0.655-9.196 2.007-3.482 1.331-6.287 3.338-8.397 6.001l-33.608 32.809-33.608-32.809c-4.792-5.345-10.67-8.008-17.592-8.008-6.943 0-12.8 2.662-17.592 8.008l-76.8 76.8c-5.345 4.792-8.008 10.67-8.008 17.592s2.662 12.8 8.008 17.592c4.792 5.325 10.67 8.008 17.592 8.008s12.8-2.662 17.592-8.008l59.208-58.409 33.608 32.809c4.792 5.325 10.67 8.008 17.592 8.008s12.8-2.662 17.592-8.008l33.608-32.809 59.208 58.409zM666.87 57.754c-4.792-4.792-10.936-7.209-18.391-7.209h-76.8c7.455 0 13.599-2.396 18.391-7.209s7.209-10.936 7.209-18.391c0-7.455-2.396-13.599-7.209-18.391s-10.936-7.209-18.391-7.209h-102.4c-7.475 0-13.599 2.396-18.391 7.209s-7.209 10.936-7.209 18.391c0 7.475 2.396 13.599 7.209 18.391s10.916 7.209 18.391 7.209h-76.8c-7.475 0-13.599 2.396-18.391 7.209s-7.209 10.936-7.209 18.391c0 7.455 2.396 13.599 7.209 18.391s10.916 7.209 18.391 7.209h256c7.455 0 13.599-2.396 18.391-7.209s7.209-10.936 7.209-18.391c0-7.455-2.417-13.578-7.209-18.391z" />
<glyph unicode="&#xe929;" glyph-name="e-42" d="M766.341 307.036c29.594-18.145 55.316-40.407 77.21-66.806 21.852-26.399 38.912-56.136 51.2-89.19 12.268-33.075 18.391-68.26 18.391-105.595 0-7.455-2.396-13.599-7.209-18.391s-10.936-7.209-18.391-7.209h-768c-7.475 0-13.599 2.396-18.391 7.209s-7.209 10.936-7.209 18.391c0 37.335 6.124 72.54 18.391 105.595s29.327 62.792 51.2 89.19c21.852 26.399 47.596 48.66 77.21 66.806 29.594 18.125 61.727 30.659 96.399 37.601-19.21 21.852-34.673 46.531-46.408 73.994s-17.592 56.668-17.592 87.593v102.4c0 32.010 6.001 61.993 18.002 90.010s28.406 52.408 49.193 73.196 45.199 37.192 73.196 49.193 57.999 18.002 90.010 18.002 61.993-6.001 90.010-18.002 52.408-28.406 73.196-49.193c20.808-20.808 37.192-45.199 49.193-73.196s18.002-57.999 18.002-90.010v-102.4c0-30.945-5.878-60.15-17.592-87.593-11.735-27.464-27.197-52.142-46.408-73.994 34.673-6.943 66.806-19.476 96.399-37.601zM258.355 257.024c-20.541-14.131-38.687-30.679-54.395-49.603-15.749-18.944-28.672-39.997-38.81-63.201s-16.794-47.596-20.009-73.196h332.8v171.192l-119.992-40.796c-4.28-1.065-8.274-1.475-12.001-1.208-3.748 0.266-7.475 1.454-11.203 3.604-2.683 2.662-5.079 5.857-7.209 9.605-2.13 3.727-3.195 7.455-3.195 11.203v64c-23.47-6.943-45.466-17.469-65.987-31.601zM433.541 773.837c-21.606-9.339-40.53-22.139-56.791-38.4-16.282-16.261-29.082-35.205-38.4-56.791-9.339-21.606-14.008-44.933-14.008-70.001v-15.196c13.865-10.138 26.255-18.678 37.192-25.6 10.916-6.943 24.125-10.404 39.608-10.404 35.717 0 67.461 7.721 95.191 23.204 27.73 15.462 48.005 36.803 60.805 64 2.662 4.792 5.857 8.54 9.605 11.203 3.727 2.662 8.253 3.994 13.599 3.994 5.325 0 9.851-1.331 13.599-3.994 3.727-2.662 6.922-6.41 9.605-11.203 7.455-15.462 18.002-28.262 31.601-38.4s29.45-17.060 47.596-20.808v23.204c0 25.068-4.69 48.538-14.008 70.41-9.339 21.852-22.139 40.796-38.4 56.791-16.282 15.995-35.205 28.652-56.791 37.99-21.606 9.339-44.933 14.008-70.001 14.008-25.068-0.020-48.394-4.69-70.001-14.008zM324.342 506.225c0-25.068 4.669-48.538 14.008-70.41 9.318-21.873 22.118-40.796 38.4-56.791 16.261-15.995 35.205-28.672 56.791-37.99 21.606-9.339 44.913-14.008 70.001-14.008 25.068 0 48.517 4.669 70.41 14.008 21.852 9.339 40.796 22.139 56.791 38.4s28.652 35.205 37.99 56.791c9.318 21.606 14.008 44.933 14.008 70.001v25.6c-20.275 3.727-39.199 10.138-56.791 19.21-17.592 9.052-32.809 20.521-45.609 34.406-19.21-24.003-44.544-43.192-76.001-57.61-31.478-14.397-65.884-21.606-103.199-21.606-16.548 0-30.945 2.253-43.192 6.799-12.288 4.526-23.47 9.994-33.608 16.404v-23.204zM375.542 260.628l68.792 20.009c-7.475 2.662-15.073 5.468-22.794 8.397-7.741 2.929-15.34 6.267-22.794 9.994-3.748 0-7.598 0-11.592 0s-7.885 0-11.592 0v-38.4zM529.142 68.628h332.8c-3.195 25.6-9.871 49.869-20.009 72.806s-23.081 43.868-38.81 62.792c-15.749 18.924-33.874 35.328-54.395 49.193-20.541 13.865-42.537 24.801-66.007 32.809v-64c0-3.748-0.799-7.475-2.396-11.203-1.597-3.748-4.28-6.943-8.008-9.605-2.683-1.065-5.202-2.13-7.598-3.195s-4.936-1.597-7.598-1.597c-1.085 0-2.273 0.41-3.604 1.208s-2.806 1.208-4.403 1.208l-119.992 40.796v-171.213zM608.358 301.425c-7.475-3.748-15.073-7.066-22.794-9.994-7.741-2.949-15.34-5.468-22.794-7.598l68.792-23.204v40.796c-3.748 0-7.598 0-11.592 0s-7.905 0-11.612 0zM752.353 140.636c4.792-4.792 7.209-10.936 7.209-18.391 0-7.475-2.396-13.599-7.209-18.391s-10.936-7.209-18.391-7.209h-102.4c-7.475 0-13.599 2.396-18.391 7.209s-7.209 10.936-7.209 18.391c0 7.455 2.396 13.599 7.209 18.391s10.916 7.209 18.391 7.209h102.4c7.455-0.020 13.578-2.417 18.391-7.209z" />
<glyph unicode="&#xe92a;" glyph-name="e-43" d="M125.051 32.154c-4.792 4.792-7.209 10.936-7.209 18.391v153.6c0 7.455 2.396 13.599 7.209 18.391s10.916 7.209 18.391 7.209h153.6c7.455 0 13.599-2.396 18.391-7.209s7.209-10.936 7.209-18.391v-153.6c0-7.455-2.396-13.599-7.209-18.391s-10.936-7.209-18.391-7.209h-153.6c-7.475 0-13.599 2.396-18.391 7.209zM169.042 76.145h102.4v102.4h-102.4v-102.4zM553.042 383.345c7.455 0 13.599-2.396 18.391-7.209s7.209-10.936 7.209-18.391v-307.2c0-7.455-2.396-13.599-7.209-18.391s-10.936-7.209-18.391-7.209h-153.6c-7.475 0-13.599 2.396-18.391 7.209s-7.209 10.936-7.209 18.391v307.2c0 7.455 2.396 13.599 7.209 18.391s10.916 7.209 18.391 7.209h153.6zM527.442 332.145h-102.4v-256h102.4v256zM655.442 24.945c-7.475 0-13.476 2.396-18.002 7.209-4.547 4.792-6.287 10.936-5.202 18.391v435.2h-51.2c-4.792 0-9.196 1.208-13.21 3.604s-7.332 5.468-9.994 9.196c-2.13 3.727-3.195 8.008-3.195 12.8s1.065 9.052 3.195 12.8l153.6 230.4c5.325 7.455 12.657 11.203 21.996 11.203 9.318 0 16.65-3.748 21.996-11.203l153.6-230.4c2.662-3.748 3.994-8.008 3.994-12.8s-1.331-9.073-3.994-12.8c-2.683-3.748-5.878-6.799-9.605-9.196-3.748-2.396-8.274-3.604-13.599-3.604h-51.2v-435.2c0-7.455-2.396-13.599-7.209-18.391s-10.936-7.209-18.391-7.209h-153.58zM655.442 536.945c7.455 0 13.599-2.396 18.391-7.209s7.209-10.936 7.209-18.391v-435.2h102.4v435.2c0 7.455 2.396 13.599 7.209 18.391s10.916 7.209 18.391 7.209h27.996l-104.796 158.392-104.796-158.392h27.996z" />
<glyph unicode="&#xe92b;" glyph-name="e-44" d="M313.426 204.145c-43.745 0-80.282 8.54-109.609 25.6-29.348 17.060-43.991 38.4-43.991 64 0 6.41 1.311 12.8 3.994 19.21 2.662 6.41 6.39 12.8 11.203 19.21-4.792 5.325-8.52 11.448-11.182 18.391-2.683 6.922-3.994 13.599-3.994 20.009s1.311 12.78 3.994 19.19c2.662 6.41 6.39 12.8 11.203 19.21-4.813 5.325-8.54 11.448-11.203 18.391-2.683 6.922-3.994 13.599-3.994 20.009s1.311 12.78 3.994 19.19c2.662 6.41 6.39 12.8 11.203 19.21-4.813 5.325-8.54 11.448-11.203 18.391-2.683 6.922-3.994 13.599-3.994 20.009s1.311 12.78 3.994 19.19c2.662 6.41 6.39 12.8 11.203 19.21-4.813 5.325-8.54 11.448-11.203 18.391-2.683 6.922-3.994 13.599-3.994 20.009s1.311 12.78 3.994 19.19c2.662 6.41 6.39 12.8 11.203 19.21-4.813 5.325-8.54 11.448-11.203 18.391-2.683 6.922-3.994 13.599-3.994 20.009 0 25.6 14.664 46.94 43.991 64s65.864 25.6 109.609 25.6c43.725 0 80.261-8.54 109.609-25.6 29.327-17.060 43.991-38.4 43.991-64 0-6.41-1.331-13.066-3.994-20.009-2.683-6.943-6.41-13.066-11.203-18.391 4.792-6.41 8.52-12.8 11.203-19.21 2.662-6.41 3.994-12.8 3.994-19.21s-1.331-13.066-3.994-20.009c-2.683-6.943-6.41-13.066-11.203-18.391 4.792-6.41 8.52-12.8 11.203-19.21 2.662-6.41 3.994-12.8 3.994-19.21s-1.331-12.8-3.994-19.21c-2.683-6.41-6.41-12.8-11.203-19.21 1.065-1.065 1.864-2.273 2.396-3.604 0.512-1.331 1.311-2.806 2.396-4.403 10.117 2.662 20.398 4.669 30.802 6.001s20.664 2.007 30.802 2.007c6.41 0 12.657-0.143 18.801-0.41 6.124-0.266 11.858-0.942 17.203-2.007 1.065 0 1.864 0.799 2.396 2.396-3.748 6.41-6.799 12.8-9.196 19.21s-3.604 12.8-3.604 19.21c0 25.6 14.664 46.94 43.991 64s65.864 25.6 109.609 25.6c43.725 0 80.261-8.54 109.609-25.6 29.327-17.060 43.991-38.4 43.991-64 0-6.41-1.331-12.8-3.994-19.21-2.683-6.41-6.41-12.8-11.203-19.21 4.792-6.41 8.52-12.8 11.203-19.21 2.662-6.41 3.994-12.8 3.994-19.21s-1.331-12.8-3.994-19.21c-2.683-6.41-6.41-12.8-11.203-19.21 4.792-6.41 8.52-12.8 11.203-19.21 2.662-6.41 3.994-12.8 3.994-19.21s-1.331-12.8-3.994-19.21c-2.683-6.41-6.41-12.8-11.203-19.21 4.792-6.41 8.52-12.8 11.203-19.21 2.662-6.41 3.994-12.8 3.994-19.21 0-25.6-14.684-46.94-43.991-64-29.348-17.060-65.884-25.6-109.609-25.6-6.41 0-12.8 0.123-19.21 0.41-6.41 0.266-12.8 0.922-19.21 2.007l-2.396-2.396c4.792-6.41 8.52-12.8 11.203-19.21 2.662-6.41 3.994-12.8 3.994-19.21 0-25.6-14.684-46.94-43.991-64-29.348-17.060-65.884-25.6-109.609-25.6-43.745 0-80.282 8.54-109.609 25.6-29.348 17.060-43.991 38.4-43.991 64 0 6.41 1.597 12.8 4.792 19.21s6.656 12.8 10.404 19.21c-1.085 1.065-1.884 2.253-2.396 3.604-0.532 1.331-1.331 2.806-2.396 4.403-10.138-2.662-20.398-4.669-30.802-6.001-10.383-1.208-20.664-1.864-30.802-1.864zM238.244 701.747c-18.145-9.605-27.197-17.592-27.197-24.003 0-2.662 1.065-5.202 3.195-7.598s4.526-4.936 7.209-7.598c1.065 0 2.253-0.532 3.604-1.597 1.311-1.065 2.519-2.396 3.604-3.994 9.052-4.792 20.664-8.95 34.796-12.39 14.111-3.461 30.802-5.202 49.992-5.202 19.21 0 35.86 1.72 49.992 5.202 14.111 3.461 25.723 7.598 34.796 12.39 1.065 1.597 2.253 2.929 3.604 3.994 1.311 1.065 2.519 1.597 3.604 1.597 3.727 2.662 6.41 5.202 8.008 7.598s2.396 4.936 2.396 7.598c0 6.41-9.073 14.397-27.197 24.003-18.145 9.605-43.192 14.397-75.203 14.397s-57.098-4.792-75.203-14.397zM313.426 588.145c-19.21 0-37.089 1.864-53.596 5.591-16.548 3.727-32.010 8.806-46.408 15.196-1.085-1.597-1.741-3.072-2.007-4.403-0.287-1.331-0.41-2.54-0.41-3.604 0-2.662 0.799-4.792 2.396-6.41s4.26-3.748 8.008-6.41c1.065-1.065 2.662-2.273 4.792-3.604s3.994-2.806 5.591-4.403c8.52-4.792 19.722-8.95 33.608-12.39 13.865-3.461 29.86-5.202 48.005-5.202 19.21 0 35.86 1.72 49.992 5.202 14.111 3.461 25.723 7.598 34.796 12.39 1.065 1.597 2.253 2.929 3.604 3.994 1.311 1.065 2.519 1.597 3.604 1.597 3.727 2.662 6.41 5.202 8.008 7.598s2.396 4.936 2.396 7.598c0 1.065-0.143 2.253-0.41 3.604-0.287 1.331-0.942 2.806-2.007 4.403-14.397-6.41-29.88-11.469-46.408-15.196-16.486-3.686-34.345-5.55-53.555-5.55zM313.426 511.345c-19.21 0-37.089 1.864-53.596 5.591-16.548 3.727-32.010 8.806-46.408 15.196-1.085-1.597-1.741-3.072-2.007-4.403-0.287-1.331-0.41-2.54-0.41-3.604 0-6.41 9.052-14.397 27.197-24.003 18.125-9.605 43.192-14.397 75.203-14.397 19.21 0 35.86 1.72 49.992 5.202 14.111 3.461 25.723 7.598 34.796 12.39 1.065 1.597 2.253 2.929 3.604 3.994 1.311 1.065 2.519 1.597 3.604 1.597 3.727 2.662 6.41 5.202 8.008 7.598s2.396 4.936 2.396 7.598c0 1.065-0.143 2.253-0.41 3.604-0.287 1.331-0.942 2.806-2.007 4.403-14.397-6.41-29.88-11.469-46.408-15.196-16.486-3.707-34.345-5.571-53.555-5.571zM259.83 440.156c-16.548 3.727-32.010 8.806-46.408 15.196-1.085-1.597-1.741-3.072-2.007-4.403-0.287-1.331-0.41-2.54-0.41-3.604 0-2.662 1.208-5.202 3.604-7.598s5.468-4.936 9.196-7.598l2.396-2.396c9.052-5.345 21.053-10.138 36.004-14.397 14.93-4.26 32.010-6.41 51.2-6.41 10.117 0 19.722 0.655 28.795 2.007 9.052 1.331 17.326 3.338 24.801 6.001 2.662 4.792 5.468 9.728 8.397 14.807 2.929 5.059 7.066 9.462 12.39 13.21-10.138-2.662-21.606-5.079-34.406-7.209s-26.132-3.195-39.997-3.195c-19.149-0.020-37.028 1.843-53.555 5.591zM313.426 357.745c-19.21 0-37.089 1.864-53.596 5.591-16.548 3.727-32.010 8.806-46.408 15.196-1.085-1.597-1.741-3.072-2.007-4.403-0.287-1.331-0.41-2.54-0.41-3.604 0-2.662 1.208-5.202 3.604-7.598s5.468-4.936 9.196-7.598l2.396-2.396c9.052-5.345 21.053-10.138 36.004-14.397 14.93-4.26 32.010-6.41 51.2-6.41 10.117 0 19.866 0.655 29.204 2.007 9.318 1.331 18.268 3.338 26.808 6.001 1.597 2.13 3.052 4.936 4.403 8.397 1.311 3.461 3.318 6.533 6.001 9.196-1.085 1.065-1.884 2.253-2.396 3.604-0.532 1.331-1.331 2.806-2.396 4.403-10.138-2.662-20.398-4.669-30.802-6.001-10.383-1.331-20.664-1.987-30.802-1.987zM211.026 293.745c0-6.41 9.052-14.397 27.197-24.003 18.125-9.605 43.192-14.397 75.203-14.397 10.117 0 19.866 0.655 29.204 2.007 9.318 1.331 18.268 3.338 26.808 6.001 1.597 3.727 3.052 6.922 4.403 9.605 1.311 2.662 3.318 5.325 6.001 8.008-1.085 1.065-1.884 2.253-2.396 3.604-0.532 1.331-1.331 2.806-2.396 4.403-10.138-2.662-20.398-4.669-30.802-6.001s-20.685-2.007-30.802-2.007c-19.21 0-37.089 1.864-53.596 5.591-16.548 3.727-32.010 8.806-46.408 15.196-1.085-1.597-1.741-3.072-2.007-4.403-0.287-1.331-0.41-2.54-0.41-3.604zM559.043 429.752c-4.792 1.065-10.936 2.253-18.391 3.604-7.475 1.331-14.93 2.54-22.405 3.604-32.010 0-57.078-4.792-75.203-14.397-18.145-9.605-27.197-17.592-27.197-24.003 0-1.065 0-1.864 0-2.396 1.065-7.475 10.67-15.749 28.795-24.801 18.125-9.073 42.66-13.599 73.605-13.599 20.255 0 37.868 2.13 52.797 6.41 14.93 4.26 25.6 9.052 32.010 14.397 2.13 1.065 4.403 2.662 6.799 4.792s4.403 3.727 6.001 4.792c0 1.597 0 2.54 0 2.806s0 1.208 0 2.806c1.065 0 1.864 0.799 2.396 2.396 0 5.325-4.28 10.793-12.8 16.404-8.54 5.591-20.541 10.26-36.004 14.008-1.085 0-1.884 0-2.396 0-0.532 0-1.331 0-2.396 0-1.597 0-2.54 0.532-2.806 1.597-0.287 1.044-1.208 1.577-2.806 1.577zM571.843 312.545c-16.548-3.461-34.406-4.669-53.596-3.604-19.21 0-37.478 1.864-54.804 5.591-17.347 3.727-32.399 8.806-45.199 15.196-1.085-1.597-1.741-2.949-2.007-3.994-0.287-1.065-0.41-2.396-0.41-3.994 0-1.065 0-1.864 0-2.396 1.065-7.475 10.67-15.749 28.795-24.801 18.125-9.073 42.66-13.599 73.605-13.599 19.21 0 36.27 2.13 51.2 6.41 14.93 4.26 26.911 9.052 36.004 14.397 0 1.065 0.799 1.864 2.396 2.396 2.662 1.065 4.669 2.662 6.001 4.792 1.311 2.13 2.806 3.994 4.403 5.591 0 1.065 0 1.864 0 2.396s0 1.331 0 2.396c1.065 0 1.864 0.799 2.396 2.396 0 1.597-0.143 2.54-0.41 2.806-0.287 0.266-0.942 1.208-2.007 2.806-14.377-6.39-29.86-11.325-46.367-14.787zM605.839 226.959c2.396 1.864 5.714 2.806 9.994 2.806 1.065 1.065 1.864 2.253 2.396 3.604 0.512 1.331 1.311 2.806 2.396 4.403 0 1.065 0 2.662 0 4.792v2.396c-0.532 2.13-1.331 3.994-2.396 5.591-14.397-6.41-29.88-11.469-46.408-15.196-16.548-3.748-34.406-5.591-53.596-5.591s-37.478 1.864-54.804 5.591c-17.347 3.727-32.399 8.806-45.199 15.196-1.085-1.597-1.741-3.072-2.007-4.403-0.287-1.331-0.41-2.54-0.41-3.604 0-6.41 9.052-14.397 27.197-24.003 18.125-9.605 43.192-14.397 75.203-14.397 18.125 0 34.12 1.72 48.005 5.202 13.865 3.461 25.068 7.598 33.608 12.39 1.618 1.618 3.625 3.338 6.021 5.222zM593.428 141.742c18.125 9.605 27.197 17.592 27.197 24.003 0 1.065-0.143 2.253-0.41 3.604-0.287 1.331-0.942 2.806-2.007 4.403-14.397-6.41-29.88-11.469-46.408-15.196-16.548-3.748-34.406-5.591-53.596-5.591s-37.478 1.864-54.804 5.591c-17.347 3.727-32.399 8.806-45.199 15.196-1.085-1.597-1.741-3.072-2.007-4.403-0.287-1.331-0.41-2.54-0.41-3.604 0-6.41 9.052-14.397 27.197-24.003 18.125-9.605 43.192-14.397 75.203-14.397s57.119 4.813 75.244 14.397zM622.244 548.147c-18.145-9.605-27.197-17.592-27.197-24.003 0-1.065 1.208-3.195 3.604-6.41s5.468-6.144 9.196-8.806l2.396-2.396c9.052-5.345 21.053-10.138 36.004-14.397 14.93-4.26 32.010-6.41 51.2-6.41s36.127 2.13 50.79 6.41c14.664 4.26 26.010 9.052 33.997 14.397 1.065 0 1.864 0.41 2.396 1.208 0.512 0.799 1.311 1.208 2.396 1.208 3.727 2.662 6.799 5.202 9.196 7.598s3.604 4.936 3.604 7.598c0 6.41-9.073 14.397-27.197 24.003-18.145 9.605-43.192 14.397-75.203 14.397s-57.078-4.792-75.182-14.397zM797.43 455.352c-14.397-6.41-29.88-11.469-46.408-15.196-16.548-3.748-34.406-5.591-53.596-5.591-7.475 0-14.684 0.266-21.606 0.799-6.943 0.532-14.131 1.864-21.606 3.994 3.727-4.792 6.799-9.339 9.196-13.599s4.403-9.073 6.001-14.397c4.792-1.065 9.318-1.741 13.599-2.007 4.26-0.266 9.052-0.41 14.397-0.41 20.255 0 37.868 2.13 52.797 6.41 14.93 4.26 26.399 9.052 34.406 14.397 4.792 3.727 8.52 6.922 11.203 9.605 2.662 2.662 3.994 5.325 3.994 8.008 0 1.065-0.143 2.253-0.41 3.604-0.246 1.311-0.901 2.785-1.966 4.383zM799.437 374.149c-0.287 1.331-0.942 2.806-2.007 4.403-14.397-6.41-29.88-11.469-46.408-15.196-16.548-3.748-34.406-5.591-53.596-5.591-6.41 0-12.8 0.123-19.21 0.41-6.41 0.266-12.8 0.922-19.21 2.007l-2.396-2.396c3.727-3.748 6.41-7.598 8.008-11.592s3.195-7.864 4.792-11.592c4.792-1.065 9.318-1.741 13.599-2.007 4.26-0.266 9.052-0.41 14.397-0.41 32.010 0 57.057 4.792 75.203 14.397 18.125 9.605 27.197 17.592 27.197 24.003 0.020 1.024-0.102 2.232-0.369 3.564zM772.628 269.742c18.125 9.605 27.197 17.592 27.197 24.003 0 1.065-0.143 2.253-0.41 3.604-0.287 1.331-0.942 2.806-2.007 4.403-14.397-6.41-29.88-11.469-46.408-15.196-16.548-3.748-34.406-5.591-53.596-5.591-6.41 0-12.8 0.123-19.21 0.41-6.41 0.266-12.8 0.922-19.21 2.007l-2.396-2.396c3.727-3.748 6.41-7.598 8.008-11.592s3.195-7.864 4.792-11.592c4.792-1.065 9.318-1.741 13.599-2.007 4.26-0.266 9.052-0.41 14.397-0.41 32.051-0.041 57.119 4.772 75.244 14.356z" />
<glyph unicode="&#xe92c;" glyph-name="e-45" d="M140.452 101.765c-7.475 0-13.599 2.253-18.391 6.799-4.792 4.526-7.209 9.994-7.209 16.404v332.8c0 7.455 2.396 13.599 7.209 18.391s10.916 7.209 18.391 7.209h102.4c7.455 0 13.599-2.396 18.391-7.209s7.209-10.936 7.209-18.391v-25.6c30.925 0 61.87-7.066 92.795-21.197s55.46-32.666 73.605-55.603h89.6c19.21 0 37.724-4.669 55.603-14.008 17.859-9.339 32.666-21.75 44.401-37.192h155.996c56.525 0 91.996-11.592 106.394-34.796s21.606-35.594 21.606-37.192c1.065-6.41 0-12.001-3.195-16.794s-7.209-8.54-12.001-11.203l-366.408-148.808c-9.073-3.748-17.592-6.267-25.6-7.598s-16.548-2.007-25.6-2.007c-10.138 0-20.685 1.208-31.601 3.604-10.936 2.396-20.931 6.267-30.003 11.592l-145.592 74.404v-8.008c0-7.475-2.396-13.599-7.209-18.391s-10.936-7.209-18.391-7.209h-102.4zM166.052 152.965h51.2v20.808c0 2.13 0 3.994 0 5.591s0 2.929 0 3.994v251.208h-51.2v-281.6zM344.453 364.564c-25.088 12.534-50.401 18.801-76.001 18.801v-189.604l168.796-87.204c10.117-4.792 21.32-7.332 33.608-7.598 12.268-0.266 24.269 1.454 36.004 5.202l335.196 136.008c-5.345 3.727-12.8 7.209-22.405 10.404s-22.671 4.792-39.199 4.792h-130.396c1.065-3.748 1.72-8.008 2.007-12.8 0.266-4.792 0.41-9.073 0.41-12.8 0-7.475-2.396-13.599-7.209-18.391s-10.936-7.209-18.391-7.209h-230.4c-7.475 0-13.599 2.396-18.391 7.209s-7.209 10.936-7.209 18.391c0 7.455 2.396 13.599 7.209 18.391s10.916 7.209 18.391 7.209h200.008c-6.41 13.865-16.548 25.866-30.392 36.004-13.885 10.138-27.73 15.196-41.595 15.196h-102.4c-3.748 0-7.475 0.799-11.203 2.396-3.748 1.597-6.943 4.26-9.605 8.008-12.841 19.19-31.785 35.041-56.832 47.596zM331.244 755.753c24.801 24.801 55.050 37.192 90.808 37.192 35.717 0 66.007-12.39 90.808-37.192s37.192-55.071 37.192-90.808c0-35.738-12.39-66.007-37.192-90.808s-55.071-37.192-90.808-37.192c-35.738 0-66.007 12.39-90.808 37.192s-37.192 55.050-37.192 90.808c0 35.738 12.39 66.007 37.192 90.808zM476.836 719.77c-14.684 14.664-32.932 21.996-54.804 21.996s-40.141-7.332-54.804-21.996c-14.684-14.664-21.996-32.932-21.996-54.804s7.311-40.141 21.996-54.804c14.664-14.664 32.911-21.996 54.804-21.996 21.852 0 40.12 7.332 54.804 21.996 14.664 14.664 21.996 32.932 21.996 54.804 0.020 21.852-7.332 40.12-21.996 54.804zM378.040 683.356c4.792 4.792 10.916 7.209 18.391 7.209h51.2c7.455 0 13.599-2.396 18.391-7.209s7.209-10.936 7.209-18.391c0-7.475-2.396-13.599-7.209-18.391s-10.936-7.209-18.391-7.209h-51.2c-7.475 0-13.599 2.396-18.391 7.209s-7.209 10.936-7.209 18.391c0.020 7.455 2.417 13.599 7.209 18.391zM638.444 602.153c24.801 24.801 55.050 37.192 90.808 37.192 35.717 0 66.007-12.39 90.808-37.192s37.192-55.071 37.192-90.808c0-35.738-12.39-66.007-37.192-90.808s-55.071-37.192-90.808-37.192c-35.738 0-66.007 12.39-90.808 37.192s-37.192 55.050-37.192 90.808c0 35.738 12.39 66.007 37.192 90.808zM784.036 566.17c-14.684 14.664-32.932 21.996-54.804 21.996s-40.141-7.332-54.804-21.996c-14.684-14.664-21.996-32.932-21.996-54.804s7.311-40.141 21.996-54.804c14.664-14.664 32.911-21.996 54.804-21.996 21.852 0 40.12 7.332 54.804 21.996 14.664 14.664 21.996 32.932 21.996 54.804 0.020 21.852-7.332 40.12-21.996 54.804zM685.24 529.756c4.792 4.792 10.916 7.209 18.391 7.209h51.2c7.455 0 13.599-2.396 18.391-7.209s7.209-10.936 7.209-18.391c0-7.475-2.396-13.599-7.209-18.391s-10.936-7.209-18.391-7.209h-51.2c-7.475 0-13.599 2.396-18.391 7.209s-7.209 10.936-7.209 18.391c0.020 7.455 2.417 13.599 7.209 18.391z" />
<glyph unicode="&#xe92d;" glyph-name="e-46" d="M203.653 393.748c-12.8 24.003-21.484 49.459-26.010 76.39-4.547 26.931-4.936 53.596-1.208 79.995s11.469 51.855 23.204 76.39c11.715 24.535 27.464 46.653 47.206 66.396 18.125 18.657 38.257 33.731 60.396 45.199 22.118 11.469 45.322 19.456 69.591 24.003 24.269 4.526 48.927 5.468 73.994 2.806s49.316-8.806 72.806-18.391c15.462 6.41 31.457 11.469 48.005 15.196 16.527 3.727 33.853 5.591 51.999 5.591 33.055 0 64.512-6.41 94.392-19.21 29.86-12.8 56.259-32.010 79.196-57.61 23.47-22.938 41.062-48.804 52.797-77.599 11.715-28.795 18.125-58.266 19.21-88.392 1.065-30.147-3.338-60.15-13.21-90.010s-25.19-57.078-45.998-81.592c11.715-12.8 17.060-28.262 15.995-46.408-1.085-18.145-8.008-33.608-20.808-46.408-6.41-6.41-13.332-11.080-20.808-14.008-7.475-2.949-14.93-4.936-22.405-6.001-1.597-8.008-3.871-15.749-6.799-23.204-2.949-7.475-7.598-14.397-14.008-20.808s-13.332-11.080-20.808-14.008c-7.475-2.949-14.93-4.936-22.405-6.001-1.597-8.008-3.871-15.749-6.799-23.204-2.949-7.475-7.598-14.397-14.008-20.808s-13.332-11.080-20.808-14.008c-7.475-2.949-14.93-4.936-22.405-6.001-1.597-8.008-3.871-15.749-6.799-23.204-2.949-7.475-7.598-14.397-14.008-20.808s-13.885-11.346-22.405-14.807c-8.54-3.461-17.347-5.202-26.399-5.202-9.073 0-17.879 1.741-26.399 5.202-8.54 3.461-15.995 8.397-22.405 14.807l-27.996 28.795c-4.792-5.345-11.346-9.339-19.599-12.001-8.274-2.662-16.138-3.994-23.593-3.994-9.073 0-17.879 1.864-26.399 5.591-8.54 3.727-15.995 8.806-22.405 15.196s-11.080 13.332-14.008 20.808c-2.949 7.455-5.202 14.93-6.799 22.405-7.475 1.597-14.93 3.85-22.405 6.799-7.475 2.929-14.397 7.598-20.808 14.008s-11.080 13.332-14.008 20.808c-2.949 7.455-5.202 14.93-6.799 22.405-7.475 1.597-14.93 3.85-22.405 6.799-7.475 2.929-14.397 7.598-20.808 14.008s-11.080 13.332-14.008 20.808c-2.949 7.455-5.202 14.93-6.799 22.405-7.475 1.597-14.93 3.85-22.405 6.799-7.475 2.929-14.397 7.598-20.808 14.008s-11.489 14.254-15.196 23.593c-3.748 9.339-5.591 18.534-5.591 27.607 0 9.052 1.864 17.859 5.591 26.399 3.871 8.602 8.95 16.077 15.36 22.467zM282.849 656.957c-29.348-29.348-47.596-64.676-54.804-106.004-7.209-41.349-2.54-79.34 14.008-113.992l8.008 8.008c12.8 12.8 29.327 19.21 49.603 19.21 20.255 0 36.803-6.41 49.603-19.21 6.41-5.345 11.203-12.001 14.397-20.009s5.325-15.995 6.41-24.003c7.455-1.065 14.93-3.072 22.405-6.001 7.455-2.949 14.397-7.598 20.808-14.008s11.203-13.332 14.397-20.808c3.195-7.475 5.325-15.196 6.41-23.204 7.455-1.065 14.93-3.072 22.405-6.001 7.455-2.949 14.397-7.598 20.808-14.008 6.41-5.345 11.203-12.001 14.397-20.009s5.325-15.995 6.41-24.003c7.455-1.065 14.93-3.072 22.405-6.001 7.455-2.949 14.397-7.598 20.808-14.008 2.662-2.662 5.202-5.734 7.598-9.196s4.116-6.533 5.202-9.196l61.604-60.805c3.727-4.26 8.397-6.41 14.008-6.41s10.26 2.13 14.008 6.41c4.26 3.727 6.41 8.397 6.41 14.008s-2.13 10.26-6.41 14.008l-55.992 55.992c-5.345 5.325-8.008 11.325-8.008 18.002 0 6.656 2.662 12.657 8.008 18.002 5.325 5.325 11.325 8.008 18.002 8.008 6.656 0 12.657-2.662 18.002-8.008l55.992-55.992c3.727-4.26 8.397-6.41 14.008-6.41s10.26 2.13 14.008 6.41c1.597 1.065 2.929 2.806 3.994 5.202s1.597 4.936 1.597 7.598c0 2.13-0.532 4.403-1.597 6.799-1.085 2.396-2.396 4.403-3.994 6.001l-55.992 55.992c-5.345 5.325-8.008 11.325-8.008 18.002 0 6.656 2.662 12.657 8.008 18.002 5.325 4.792 11.325 7.209 18.002 7.209 6.656 0 12.657-2.396 18.002-7.209l55.992-56.791c3.727-3.748 8.397-5.591 14.008-5.591s10.26 1.864 14.008 5.591c4.26 4.26 6.41 9.052 6.41 14.397 0 5.325-2.13 10.138-6.41 14.397l-155.996 163.205c-29.348-3.748-57.876-1.475-85.606 6.799-27.73 8.253-48.538 15.606-62.403 21.996-36.27-30.945-70.943-45.076-103.997-42.394-33.075 2.662-57.344 9.052-72.806 19.21-2.683 1.065-5.079 3.338-7.209 6.799s-3.195 7.066-3.195 10.793c0 3.727 0.655 7.455 2.007 11.203 1.311 3.727 3.318 6.922 6.001 9.605l158.392 158.392c2.662 3.727 5.714 7.066 9.196 9.994 3.461 2.929 6.267 5.734 8.397 8.397-33.075 6.41-65.475 5.059-97.198-3.994-31.867-9.052-60.006-25.866-84.521-50.381zM235.643 334.95c1.065-2.396 2.396-4.137 3.994-5.202 3.727-3.748 8.397-5.591 14.008-5.591s10.26 1.864 14.008 5.591l46.408 48.804c1.065 1.065 2.13 2.806 3.195 5.202s1.597 4.936 1.597 7.598c0 2.13-0.532 4.403-1.597 6.799-1.085 2.396-2.13 4.403-3.195 6.001-1.597 1.065-3.604 2.13-6.001 3.195s-4.69 1.597-6.799 1.597c-2.683 0-4.936-0.266-6.799-0.799-1.884-0.532-3.871-1.864-6.001-3.994l-48.804-48.804c-1.597-1.597-2.949-3.461-3.994-5.591-1.085-2.13-1.597-4.547-1.597-7.209-0.020-2.662 0.512-5.202 1.577-7.598zM297.656 279.757c-0.287-5.591 0.922-10.26 3.604-14.008 3.727-3.748 8.397-5.591 14.008-5.591s10.26 1.864 14.008 5.591l48.804 48.804c3.727 3.727 5.591 8.397 5.591 14.008s-1.884 10.26-5.591 14.008c-1.597 1.065-3.604 2.13-6.001 3.195s-4.69 1.597-6.799 1.597c-2.683 0-5.202-0.532-7.598-1.597s-4.137-2.13-5.202-3.195l-48.804-48.804c-3.768-3.748-5.775-8.417-6.021-14.008zM699.658 700.948c-24.003 10.138-49.336 15.196-76.001 15.196-27.197 0-52.797-5.079-76.8-15.196-24.003-10.138-46.141-24.801-66.396-43.991l-131.195-130.396c12.8-1.065 27.32 0.655 43.602 5.202 16.261 4.526 33.464 15.606 51.61 33.198 3.727 3.727 8.52 6.124 14.397 7.209 5.857 1.065 11.203 0.532 15.995-1.597 27.73-13.332 51.466-22.262 71.209-26.808 19.722-4.547 40.407-6.144 61.993-4.792 21.606 1.331 40.407 9.994 56.402 26.010 5.325 5.325 11.325 8.008 18.002 8.008 6.656 0 12.657-2.662 18.002-8.008 4.792-4.792 7.209-10.67 7.209-17.592 0-6.943-2.396-13.066-7.209-18.391-3.748-4.792-8.54-9.196-14.397-13.21-5.878-3.994-11.489-7.066-16.794-9.196l107.991-112.804c15.462 19.722 26.665 41.329 33.608 64.799 6.922 23.47 9.851 47.063 8.806 70.799-1.085 23.736-6.287 46.653-15.606 68.792-9.339 22.139-22.548 41.738-39.608 58.798-19.231 19.169-40.817 33.833-64.819 43.971zM363.643 209.347c1.065-2.396 2.396-4.936 3.994-7.598 3.727-3.748 8.397-5.591 14.008-5.591s10.26 1.864 14.008 5.591l46.408 51.2c1.065 1.065 2.13 2.806 3.195 5.202s1.597 4.936 1.597 7.598c0 2.662-0.532 5.059-1.597 7.209-1.085 2.13-2.13 3.994-3.195 5.591-1.597 1.065-3.604 2.13-6.001 3.195s-4.69 1.597-6.799 1.597c-2.683 0-5.202-0.532-7.598-1.597s-4.137-2.13-5.202-3.195l-48.804-48.804c-1.597-1.065-2.949-2.806-3.994-5.202-1.085-2.396-1.597-4.936-1.597-7.598-0.020-2.662 0.512-5.202 1.577-7.598zM431.657 140.145c3.727-3.748 8.397-5.591 14.008-5.591s10.26 1.864 14.008 5.591l46.408 46.408c3.727 3.727 5.591 8.397 5.591 14.008s-1.884 10.26-5.591 14.008c-1.597 1.065-3.604 2.13-6.001 3.195s-4.69 1.597-6.799 1.597c-2.683 0-5.202-0.532-7.598-1.597s-4.137-2.13-5.202-3.195l-48.804-48.804c-1.597-1.065-2.949-2.806-3.994-5.202-1.085-2.396-1.597-4.936-1.597-7.598s0.512-5.202 1.597-7.598c1.024-2.417 2.376-4.157 3.973-5.222zM579.645 106.557c2.662 2.662 4.116 5.325 4.403 8.008 0.266 2.662-0.143 5.325-1.208 8.008 0 2.13-0.532 4.403-1.597 6.799-1.085 2.396-2.396 4.403-3.994 6.001l-27.996 27.996c-1.085-2.662-2.683-5.202-4.792-7.598-2.13-2.396-3.994-4.137-5.591-5.202l-15.196-15.196 27.996-28.795c3.727-3.748 8.397-5.591 14.008-5.591s10.24 1.823 13.967 5.571z" />
<glyph unicode="&#xe92e;" glyph-name="e-47" d="M912.302 811.356c4.792-4.792 7.209-10.936 7.209-18.391v-345.6c0-6.41-1.331-12.8-3.994-19.21-2.683-6.41-6.41-12.8-11.203-19.21 4.792-6.41 8.52-12.8 11.203-19.21 2.662-6.41 3.994-12.8 3.994-19.21s-1.331-12.8-3.994-19.21c-2.683-6.41-6.41-12.8-11.203-19.21 4.792-6.41 8.52-12.8 11.203-19.21 2.662-6.41 3.994-12.8 3.994-19.21s-1.331-12.8-3.994-19.21c-2.683-6.41-6.41-12.8-11.203-19.21 4.792-6.41 8.52-12.8 11.203-19.21 2.662-6.41 3.994-12.8 3.994-19.21 0-25.6-14.684-46.94-43.991-64-29.348-17.060-65.884-25.6-109.609-25.6-6.41 0-12.943 0.123-19.599 0.41-6.676 0.266-13.742 0.922-21.197 2.007l-2.396-2.396c4.792-6.41 8.52-12.8 11.203-19.21 2.662-6.41 3.994-12.8 3.994-19.21 0-25.6-14.807-46.94-44.401-64s-66.007-25.6-109.199-25.6c-43.745 0-80.282 8.54-109.609 25.6-29.348 17.060-43.991 38.4-43.991 64 0 6.41 1.597 12.8 4.792 19.21s6.656 12.8 10.404 19.21c-5.345 5.325-9.196 11.469-11.592 18.391s-3.604 13.599-3.604 20.009 1.597 12.8 4.792 19.21 6.656 12.8 10.404 19.21h-320.020c-7.475 0-13.599 2.396-18.391 7.209s-7.209 10.936-7.209 18.391v563.2c0 7.455 2.396 13.599 7.209 18.391s10.916 7.209 18.391 7.209h768c7.455 0.061 13.599-2.335 18.412-7.127zM151.491 255.345h283.996c1.597 5.325 3.461 9.994 5.591 14.008 2.13 3.994 4.526 7.864 7.209 11.592-3.748 3.727-6.41 7.598-8.008 11.592s-3.195 8.663-4.792 14.008h-104.796c-7.475 0-13.599 2.396-18.391 7.209s-7.209 10.936-7.209 18.391c0 21.852-7.332 40.12-21.996 54.804-14.684 14.664-32.932 21.996-54.804 21.996-7.475 0-13.599 2.396-18.391 7.209s-7.209 10.936-7.209 18.391v153.6c0 7.455 2.396 13.599 7.209 18.391s10.916 7.209 18.391 7.209c21.852 0 40.12 7.332 54.804 21.996 14.664 14.664 21.996 32.932 21.996 54.804 0 7.455 2.396 13.599 7.209 18.391s10.916 7.209 18.391 7.209h358.4c7.455 0 13.599-2.396 18.391-7.209s7.209-10.936 7.209-18.391c0-21.873 7.311-40.141 21.996-54.804 14.664-14.664 32.911-21.996 54.804-21.996 7.455 0 13.599-2.396 18.391-7.209s7.209-10.936 7.209-18.391v-53.596c10.117-2.662 19.313-5.345 27.607-8.008 8.253-2.662 16.118-6.144 23.593-10.404v251.208h-716.8v-512zM445.891 357.745c12.8 15.462 31.457 27.853 55.992 37.192 24.515 9.339 52.797 14.008 84.808 14.008 6.41 0 12.657-0.143 18.801-0.41 6.124-0.266 11.858-0.942 17.203-2.007 1.065 0 1.864 0.799 2.396 2.396-3.748 6.41-6.799 12.8-9.196 19.21s-3.604 12.8-3.604 19.21c0 25.6 14.664 46.94 43.991 64s65.864 25.6 109.609 25.6v27.996c-25.6 5.325-47.35 16.937-65.208 34.796-17.879 17.859-29.471 39.608-34.796 65.208h-311.992c-5.345-25.6-16.937-47.35-34.796-65.208-17.879-17.879-39.608-29.471-65.208-34.796v-107.192c25.6-5.345 47.329-16.937 65.208-34.796 17.859-17.879 29.45-39.608 34.796-65.208h91.996zM582.287 438.948c-20.009-20.009-44.134-30.003-72.397-30.003-28.283 0-52.408 9.994-72.397 30.003s-30.003 44.134-30.003 72.397c0 28.262 9.994 52.408 30.003 72.397s44.114 30.003 72.397 30.003c28.262 0 52.408-9.994 72.397-30.003s30.003-44.134 30.003-72.397c0-28.262-9.994-52.388-30.003-72.397zM473.887 475.341c10.117-10.138 22.118-15.196 36.004-15.196 13.865 0 25.866 5.059 36.004 15.196 10.117 10.138 15.196 22.139 15.196 36.004s-5.079 25.866-15.196 36.004c-10.138 10.138-22.139 15.196-36.004 15.196-13.885 0-25.887-5.079-36.004-15.196-10.138-10.138-15.196-22.139-15.196-36.004s5.059-25.866 15.196-36.004zM627.487 355.348c-4.792 0-10.936 0.41-18.391 1.208-7.475 0.799-15.749 1.208-24.801 1.208-28.283 0-51.077-3.994-68.403-12.001-17.347-8.008-27.873-15.196-31.601-21.606v-2.396c0-1.065 0-1.864 0-2.396 0-6.41 9.052-14.397 27.197-24.003 18.125-9.605 43.192-14.397 75.203-14.397 20.255 0 37.868 2.253 52.797 6.799 14.93 4.526 26.399 9.994 34.406 16.404 2.662 1.065 5.059 2.662 7.209 4.792 2.13 2.13 3.994 3.994 5.591 5.591 0 1.065 0 1.864 0 2.396s0 1.331 0 2.396v2.396c0 5.325-4.28 10.793-12.8 16.404-8.54 5.591-20.541 10.527-36.004 14.807-1.085 0-1.884 0-2.396 0-0.532 0-1.331 0-2.396 0-1.597 0-2.54 0.41-2.806 1.208-0.287 0.799-1.208 1.188-2.806 1.188zM673.894 224.952c3.727 2.13 6.41 4.137 8.008 6.001s3.195 4.137 4.792 6.799c0 1.065 0 1.864 0 2.396s0 1.331 0 2.396c1.065 0 1.864 0.799 2.396 2.396 0 1.597-0.143 2.54-0.41 2.806-0.287 0.266-0.942 1.208-2.007 2.806-14.397-6.41-29.88-11.469-46.408-15.196-16.548-3.748-34.406-5.591-53.596-5.591s-37.478 1.864-54.804 5.591c-17.347 3.727-32.399 8.806-45.199 15.196-1.085-1.597-1.741-3.072-2.007-4.403-0.287-1.331-0.41-2.54-0.41-3.604 0-6.41 9.052-14.397 27.197-24.003 18.125-9.605 43.192-14.397 75.203-14.397 19.21 0 36.27 2.13 51.2 6.41 14.971 4.26 26.972 9.052 36.045 14.397zM674.284 150.958c2.396 1.331 5.714 2.007 9.994 2.007 1.065 1.065 1.864 2.253 2.396 3.604 0.512 1.331 1.311 2.806 2.396 4.403 0 1.065 0 2.662 0 4.792v2.396c-0.532 2.13-1.331 3.994-2.396 5.591-14.397-6.41-29.88-11.469-46.408-15.196-16.548-3.748-34.406-5.591-53.596-5.591s-37.478 1.864-54.804 5.591c-17.347 3.727-32.399 8.806-45.199 15.196-1.085-1.597-1.741-3.072-2.007-4.403-0.287-1.331-0.41-2.54-0.41-3.604 0-6.41 9.052-14.397 27.197-24.003 18.125-9.605 43.192-14.397 75.203-14.397 18.125 0 34.12 1.72 48.005 5.202 13.865 3.461 25.068 7.598 33.608 12.39 1.638 2.683 3.625 4.669 6.021 6.021zM661.893 64.942c18.125 9.605 27.197 17.592 27.197 24.003 0 1.065-0.143 2.253-0.41 3.604-0.287 1.331-0.942 2.806-2.007 4.403-14.397-6.41-29.88-11.469-46.408-15.196-16.548-3.748-34.406-5.591-53.596-5.591s-37.478 1.864-54.804 5.591c-17.347 3.727-32.399 8.806-45.199 15.196-1.085-1.597-1.741-3.072-2.007-4.403-0.287-1.331-0.41-2.54-0.41-3.604 0-6.41 9.052-14.397 27.197-24.003 18.125-9.605 43.192-14.397 75.203-14.397s57.098 4.813 75.244 14.397zM864.686 439.747c2.396 2.396 3.604 4.936 3.604 7.598 0 6.41-9.073 14.397-27.197 24.003-18.145 9.605-43.192 14.397-75.203 14.397s-57.078-4.792-75.203-14.397c-18.145-9.605-27.197-17.592-27.197-24.003 0-1.065 1.208-3.195 3.604-6.41s5.468-6.144 9.196-8.806l2.396-2.396c9.052-5.345 21.053-10.138 36.004-14.397 14.93-4.26 32.010-6.41 51.2-6.41s36.127 2.13 50.79 6.41c14.664 4.26 26.010 9.052 33.997 14.397 1.065 0 1.864 0.41 2.396 1.208 0.512 0.799 1.311 1.208 2.396 1.208 3.748 2.662 6.82 5.202 9.216 7.598zM868.291 370.545c0 1.065-0.287 2.396-0.799 3.994-0.532 1.597-1.884 3.727-3.994 6.41-14.397-6.41-29.88-11.469-46.408-15.196-16.548-3.748-34.406-5.591-53.596-5.591-6.41 0-13.21 0.123-20.398 0.41-7.209 0.266-14.008 0.922-20.398 2.007 3.727-4.792 6.799-9.339 9.196-13.599s4.403-9.073 6.001-14.397c4.792-1.065 9.318-1.741 13.599-2.007 4.26-0.266 9.052-0.41 14.397-0.41 20.255 0 37.868 2.13 52.797 6.41 14.93 4.26 26.399 9.052 34.406 14.397 4.792 3.727 8.52 6.922 11.203 9.605 2.662 2.642 3.994 5.304 3.994 7.967zM867.901 297.349c-0.287 1.331-0.942 2.806-2.007 4.403-14.397-6.41-29.88-11.469-46.408-15.196-16.548-3.748-34.406-5.591-53.596-5.591-6.41 0-12.8 0.123-19.21 0.41-6.41 0.266-12.8 0.922-19.21 2.007l-2.396-2.396c3.727-3.748 6.41-7.598 8.008-11.592s3.195-7.864 4.792-11.592c4.792-1.065 9.318-1.741 13.599-2.007 4.26-0.266 9.052-0.41 14.397-0.41 32.010 0 57.057 4.792 75.203 14.397 18.125 9.605 27.197 17.592 27.197 24.003 0.020 1.024-0.123 2.232-0.369 3.564zM841.093 192.942c18.125 9.605 27.197 17.592 27.197 24.003 0 1.065-0.143 2.253-0.41 3.604-0.287 1.331-0.942 2.806-2.007 4.403-14.397-6.41-29.88-11.469-46.408-15.196-16.548-3.748-34.406-5.591-53.596-5.591-6.41 0-12.8 0.123-19.21 0.41-6.41 0.266-12.8 0.922-19.21 2.007l-2.396-2.396c3.727-3.748 6.41-7.598 8.008-11.592s3.195-7.864 4.792-11.592c4.792-1.065 9.318-1.741 13.599-2.007 4.26-0.266 9.052-0.41 14.397-0.41 32.051-0.041 57.098 4.772 75.244 14.356z" />
<glyph unicode="&#xe92f;" glyph-name="e-48" d="M871.997 519.188c10.117-1.597 21.996-8.397 35.594-20.398s20.398-30.802 20.398-56.402c0-20.808-4.792-38.666-14.397-53.596s-22.671-26.132-39.199-33.608c-3.748-39.465-16.671-76.145-38.81-109.998-22.139-33.874-51.077-60.396-86.794-79.606v-79.196c0-7.455-2.396-13.599-7.209-18.391s-10.936-7.209-18.391-7.209h-128c-7.475 0-13.599 2.396-18.391 7.209s-7.209 10.936-7.209 18.391v51.2h-76.8v-51.2c0-7.455-2.396-13.599-7.209-18.391s-10.936-7.209-18.391-7.209h-128c-7.475 0-13.599 2.396-18.391 7.209s-7.209 10.936-7.209 18.391v81.592c-15.483 9.052-30.392 19.866-44.81 32.399-14.397 12.534-26.685 26.522-36.803 42.004h-97.587c-7.475 0-13.599 2.396-18.391 7.209s-7.209 10.936-7.209 18.391v179.2c0 8.008 2.396 14.254 7.209 18.801 4.792 4.547 10.916 6.799 18.391 6.799h68.792c8.008 18.125 17.715 35.328 29.204 51.61 11.469 16.261 24.924 30.802 40.407 43.602l-33.608 99.205c-1.085 2.662-1.597 5.857-1.597 9.605 0 3.727 0.512 7.455 1.597 11.203 1.597 2.662 3.994 5.202 7.209 7.598s5.857 4.137 8.008 5.202c21.852 5.325 51.855 4.792 90.010-1.597 38.113-6.41 71.311-31.478 99.594-75.203h189.604c22.405 0 43.991-2.949 64.799-8.806 20.808-5.878 40.264-14.131 58.409-24.801 18.125-10.67 34.529-23.593 49.193-38.81 14.664-15.196 27.054-32.133 37.192-50.79 1.597 6.41 5.202 11.325 10.793 14.807 5.591 3.441 11.592 4.649 18.002 3.584zM712.786 206.397c32.010 14.397 57.856 35.86 77.599 64.41 19.722 28.529 31.457 60.129 35.205 94.802-1.085 0-1.741 0.532-2.007 1.597-0.287 1.065-0.41 2.13-0.41 3.195-1.597 2.662-1.884 5.325-0.799 8.008 1.065 2.662 2.13 5.059 3.195 7.209-0.532 25.6-6.001 49.725-16.404 72.397-10.404 22.651-24.146 42.537-41.206 59.597-17.080 17.060-37.192 30.536-60.396 40.407-23.204 9.851-47.882 14.807-73.994 14.807h-204.8c-5.345 0-9.871 1.208-13.599 3.604-3.748 2.396-6.943 5.468-9.605 9.196-16.548 29.327-35.205 48.128-55.992 56.402-20.808 8.253-38.687 12.39-53.596 12.39l32.809-89.6c1.597-4.792 1.597-9.748 0-14.807-1.597-5.079-5.079-9.462-10.404-13.21-16.548-12.8-30.945-27.873-43.192-45.199-12.288-17.347-21.606-35.594-27.996-54.804-2.683-4.792-6.41-8.95-11.203-12.39-4.792-3.461-9.605-5.202-14.397-5.202h-61.604v-128h84.808c3.727 0 7.721-1.065 12.001-3.195 4.26-2.13 6.922-4.547 8.008-7.209 10.117-16.548 22.651-31.068 37.601-43.602 14.93-12.534 30.659-22.794 47.206-30.802 4.792-2.13 8.52-5.202 11.203-9.196 2.662-3.994 3.994-8.397 3.994-13.21v-72.008h76.8v25.6c-7.475 0-13.599 2.396-18.391 7.209s-7.209 10.936-7.209 18.391c0 7.455 2.396 13.599 7.209 18.391s10.916 7.209 18.391 7.209h179.2c7.455 0 13.599-2.396 18.391-7.209s7.209-10.936 7.209-18.391c0-7.475-2.396-13.599-7.209-18.391s-10.936-7.209-18.391-7.209v-25.6h76.8v72.008c0 4.792 1.311 9.196 3.994 13.21 2.642 3.994 6.39 7.045 11.182 9.196zM397.599 477.594c12.268-12.268 18.391-27.464 18.391-45.609s-6.144-33.341-18.391-45.609c-12.288-12.268-27.484-18.391-45.609-18.391-18.145 0-33.341 6.124-45.609 18.391-12.288 12.268-18.391 27.464-18.391 45.609 0 18.125 6.124 33.321 18.391 45.609 12.268 12.268 27.464 18.391 45.609 18.391 18.125 0 33.321-6.144 45.609-18.391zM361.185 422.789c2.396 2.396 3.604 5.468 3.604 9.196s-1.208 6.799-3.604 9.196-5.489 3.604-9.196 3.604c-3.748 0-6.799-1.208-9.196-3.604s-3.604-5.468-3.604-9.196c0-3.748 1.208-6.799 3.604-9.196s5.468-3.604 9.196-3.604c3.727 0 6.799 1.208 9.196 3.604zM641.987 679.588c-20.009-20.009-44.134-30.003-72.397-30.003-28.283 0-52.408 9.994-72.397 30.003s-30.003 44.134-30.003 72.397c0 28.262 9.994 52.408 30.003 72.397s44.114 30.003 72.397 30.003c28.262 0 52.408-9.994 72.397-30.003 20.009-20.009 30.003-44.134 30.003-72.397s-9.994-52.388-30.003-72.397zM664.801 539.996c4.792-4.792 7.209-10.936 7.209-18.391 0-7.475-2.396-13.599-7.209-18.391s-10.936-7.209-18.391-7.209h-153.6c-7.475 0-13.599 2.396-18.391 7.209s-7.209 10.936-7.209 18.391c0 7.455 2.396 13.599 7.209 18.391s10.916 7.209 18.391 7.209h153.6c7.434-0.020 13.578-2.417 18.391-7.209zM533.586 715.981c10.117-10.138 22.118-15.196 36.004-15.196 13.865 0 25.866 5.059 36.004 15.196 10.117 10.138 15.196 22.139 15.196 36.004s-5.079 25.866-15.196 36.004c-10.138 10.138-22.139 15.196-36.004 15.196-13.885 0-25.887-5.079-36.004-15.196-10.138-10.138-15.196-22.139-15.196-36.004s5.059-25.866 15.196-36.004zM874.394 421.581c0 2.662 0.512 5.857 1.597 9.605 1.065 3.727 2.13 7.455 3.195 11.203 0 12.8-5.079 22.139-15.196 27.996h-2.396c2.662-7.475 5.059-15.196 7.209-23.204 2.109-7.987 3.994-16.527 5.591-25.6z" />
<glyph unicode="&#xe930;" glyph-name="e-49" d="M384 166.994v260.792c-21.34 5.857-42.68 12.8-64 20.808-21.34 8.008-40.53 18.391-57.61 31.191s-30.945 29.061-41.595 48.804c-10.67 19.722-15.995 44.257-15.995 73.605 0 25.068 4.669 48.538 14.008 70.41 9.318 21.852 21.852 40.796 37.601 56.791 15.729 15.995 34.12 28.652 55.194 37.99 21.053 9.339 43.602 14.008 67.604 14.008h4.792v25.6c0 7.455 2.396 13.599 7.209 18.391s10.916 7.209 18.391 7.209c7.455 0 13.599-2.396 18.391-7.209s7.209-10.936 7.209-18.391v-25.6h4.792c24.003 0 46.51-4.669 67.604-14.008 21.053-9.339 39.465-22.139 55.194-38.4s28.262-35.205 37.601-56.791c9.339-21.606 14.008-44.954 14.008-70.001 0-7.475-2.396-13.599-7.209-18.391s-10.936-7.209-18.391-7.209c-7.475 0-13.599 2.396-18.391 7.209s-7.209 10.916-7.209 18.391c0 35.738-11.878 66.007-35.594 90.808-23.736 24.801-52.941 37.192-87.593 37.192h-4.813v-260.792c21.32-5.878 42.66-12.677 64-20.398 21.32-7.741 40.53-18.145 57.61-31.191 17.060-13.066 30.925-29.471 41.595-49.193 10.67-19.763 15.995-44.298 15.995-73.626 0-25.068-4.547-48.394-13.599-70.001-9.073-21.606-21.484-40.53-37.192-56.791-15.749-16.261-34.14-29.061-55.194-38.4-21.074-9.339-43.889-14.008-68.403-14.008h-4.813v-25.6c0-7.455-2.396-13.599-7.209-18.391s-10.916-7.209-18.391-7.209c-7.475 0-13.599 2.396-18.391 7.209s-7.209 10.936-7.209 18.391v25.6h-4.792c-24.003 0-46.531 4.669-67.604 14.008s-39.485 22.139-55.194 38.4c-15.749 16.261-28.283 35.205-37.601 56.791-9.339 21.606-14.008 44.933-14.008 70.001 0 7.455 2.396 13.599 7.209 18.391s10.916 7.209 18.391 7.209c7.455 0 13.599-2.396 18.391-7.209s7.209-10.936 7.209-18.391c0-35.738 11.858-66.007 35.594-90.808 23.716-24.801 52.92-37.192 87.593-37.192h4.813zM290.406 522.588c22.917-15.749 54.129-29.204 93.594-40.407v248.013h-4.792c-33.608 0-62.546-12.39-86.794-37.192-24.289-24.801-36.393-55.071-36.393-90.808-0.020-37.335 11.448-63.877 34.386-79.606zM435.2 166.994h4.792c33.608 0 62.525 12.39 86.794 37.192s36.393 55.050 36.393 90.808c0 37.335-11.489 63.857-34.406 79.606-22.938 15.729-54.149 29.204-93.594 40.407v-248.013z" />
<glyph unicode="&#xe931;" glyph-name="e-50" d="M221.942 371.773c0 7.455 2.396 13.599 7.209 18.391s10.916 7.209 18.391 7.209h55.992c-1.085 9.052-2.13 17.592-3.195 25.6-1.085 8.008-1.597 16.527-1.597 25.6 0 9.052 0.512 17.592 1.597 25.6 1.065 8.008 2.13 16.527 3.195 25.6h-55.992c-7.475 0-13.599 2.396-18.391 7.209s-7.209 10.936-7.209 18.391c0 7.455 2.396 13.599 7.209 18.391s10.916 7.209 18.391 7.209h66.396c11.203 33.055 26.911 63.734 47.206 91.996 20.255 28.262 44.257 52.654 72.008 73.196 27.73 20.521 58.409 36.536 91.996 48.005 33.608 11.469 69.059 17.203 106.394 17.203 35.717 0 70.513-5.591 104.407-16.794 33.853-11.203 65.72-27.73 95.601-49.603 4.792-3.748 7.721-9.339 8.806-16.794 1.065-7.475-0.287-13.865-3.994-19.21-3.748-5.345-9.339-8.54-16.794-9.605-7.475-1.065-13.885 0.532-19.21 4.792-24.003 17.592-50.401 31.334-79.196 41.206-28.795 9.851-58.675 14.807-89.6 14.807-29.348 0-57.61-4.403-84.808-13.21s-52.142-21.197-74.793-37.192c-22.671-15.995-42.68-34.939-60.006-56.791-17.347-21.873-31.089-45.875-41.206-72.008h235.192c7.455 0 13.599-2.396 18.391-7.209s7.209-10.936 7.209-18.391c0-7.475-2.396-13.599-7.209-18.391s-10.936-7.209-18.391-7.209h-251.208c-1.085-7.475-2.13-15.606-3.195-24.392-1.085-8.806-1.597-17.736-1.597-26.808s0.512-18.002 1.597-26.808c1.065-8.806 2.13-16.937 3.195-24.392h251.208c7.455 0 13.599-2.396 18.391-7.209s7.209-10.936 7.209-18.391c0-7.475-2.396-13.599-7.209-18.391s-10.936-7.209-18.391-7.209h-235.213c10.117-26.132 23.716-50.278 40.796-72.397 17.060-22.139 36.925-41.062 59.597-56.791 22.651-15.749 47.596-27.996 74.793-36.803s55.726-13.21 85.606-13.21c30.925 0 60.805 4.936 89.6 14.807 28.795 9.851 55.194 23.593 79.196 41.206 5.325 4.26 11.715 5.857 19.21 4.792 7.455-1.065 13.066-4.26 16.794-9.605s5.059-11.735 3.994-19.21c-1.085-7.475-3.994-13.066-8.806-16.794-29.88-21.873-61.747-38.4-95.601-49.603-33.874-11.203-68.69-16.794-104.407-16.794-37.335 0-72.806 5.734-106.394 17.203-33.608 11.469-64.287 27.464-91.996 48.005-27.73 20.521-51.732 44.933-72.008 73.196s-36.004 58.921-47.206 91.996h-66.396c-7.475 0-13.599 2.396-18.391 7.209s-7.168 10.936-7.168 18.391z" />
</font>
</defs>
</svg>
